.
Авторизация | Регистрация
Хочешь лучшие торренты? Добавь свой email!
Добавить
» » Из-за чести (1956) DVDRip от New-Team торрент скачать бесплатно




    Из-за чести (1956) DVDRip от New-Team торрент скачать бесплатно

    Опубликовал: Админ | Дата: 11-11-2016, 05:01 | Просмотров: 53



    Снималось в: СССР
    Создали в: Ереванская студия художественныъ и хроникальных фильмов
    Категория жанра: драма
    Создали в: 1956
    Время просмотра: 01: 16: 10
    Перевод текста: Не требуется
    Субтитры подготовлены: нет
    Оригинальная аудиодорожка: русский
    Главный режиссер: Арташес Ай-Артян

    Актеры

    Грачья Нерсесян, Авет Аветисян, Гурген Габриелян, Вардуи Вардересян, Хачик Назаретян, Амалия Аразян, Артём Карапетян, Марина Тбилели, Карп Хачванкян, Галина Супрунова...
    Полный список актёров
    Описание:
    По одноименной драме классика армянской литературы А.Ширванзаде.
    Нефтепромышленник-миллионер Андеас Элизбаров пытается обманом завладеть состоянием своего умершего компаньона, сын которого Арташес любит его дочь Маргариту. Не выдержав позора, Маргарита кончает жизнь самоубийством.



    Источник: DVD5 R5
    Качество фильма видео: DVDRip
    Тип видео видео: AVI
    Информация о видео: 640x480 (4: 3), 25 fps, XviD ~ 1231 kbps avg, 0.160 bit/pixel
    Информация о звуке: 48 kHz, MP3 2.0, 128 kbps
    Раздача от:
    MediaInfo

    Общее
    Полное имя : Iz-za.chesti.1956.DVDRip-745_New-team_by_AVP_Studio.avi
    Формат : AVI
    Формат/Информация : Audio Video Interleave
    Размер файла : 746 Мбайт
    Продолжительность : 1 ч. 16 м.
    Общий поток : 1369 Кбит/сек
    Программа кодирования : VirtualDubMod 1.5.10.3 | www.virtualdub-fr.org || (build 2550/release)
    Библиотека кодирования : VirtualDubMod build 2550/release
    Видео
    Идентификатор : 0
    Формат : MPEG-4 Visual
    Профиль формата : Advanced Simple@L5
    Параметр BVOP формата : 1
    Параметр QPel формата : Нет
    Параметр GMC формата : Без точки перехода
    Параметр матрицы формата : Выборочная
    Идентификатор кодека : XVID
    Идентификатор кодека/Подсказка : XviD
    Продолжительность : 1 ч. 16 м.
    Битрейт : 1231 Кбит/сек
    Ширина : 640 пикселей
    Высота : 480 пикселей
    Соотношение сторон : 4: 3
    Частота кадров : 25, 000 кадров/сек
    Цветовое пространство : YUV
    Субдискретизация насыщенности : 4: 2: 0
    Битовая глубина : 8 бит
    Тип развёртки : Прогрессивная
    Метод сжатия : С потерями
    Бит/(Пиксели*Кадры) : 0.160
    Размер потока : 671 Мбайт (90%)
    Библиотека кодирования : XviD 1.2.1 (UTC 2008-12-04)
    Аудио
    Идентификатор : 1
    Формат : MPEG Audio
    Версия формата : Version 1
    Профиль формата : Layer 3
    Идентификатор кодека : 55
    Идентификатор кодека/Подсказка : MP3
    Продолжительность : 1 ч. 16 м.
    Вид битрейта : Постоянный
    Битрейт : 128 Кбит/сек
    Каналы : 2 канала
    Частота : 48, 0 КГц
    Метод сжатия : С потерями
    Размер потока : 69, 7 Мбайт (9%)
    Выравнивание : Соединение по промежуткам
    Продолжительность промежутка : 40 мс. (1, 00 видеокадр)
    Время предзагрузки промежутка : 504 мс.
    Библиотека кодирования : LAME3.99r
    Залил: AVPStudio
    Размер скачиваемого торрента: 745.62 MB (781836288 Bytes)


    Из-за чести (1956) DVDRip от New-Team
    загрузка...
    Рейтинг →
     (голосов: 1, оценка 5/5, голосовать можно 1 раз )

    Другие торренты по теме:

  • Из-за чести (1956) DVDRip от New-Team
  • Из-за чести / 1956 / РУ / DVDRip (AVC)


    • Комментарии (0):

      Информация

      Информация

        Посетители, находящиеся в группе Гости, не могут оставлять комментарии в данной новости.

        ↓ Меню



        ↓ Опрос

        А Вы добавили сайт в закладки?
        Да
        Не


        Top 10 за месяц (Фильмы)