.
Авторизация | Регистрация
Хочешь лучшие торренты? Добавь свой email!
Добавить
» » Полет к тысячам солнц (1963) WEBRip-AVC торрент скачать бесплатно




    Полет к тысячам солнц (1963) WEBRip-AVC торрент скачать бесплатно

    Опубликовал: Админ | Дата: 12-11-2016, 05:01 | Просмотров: 67



    Детально о кино
    Русское название: Полет к тысячам солнц
    Создали в: 1963
    Категория жанра: фантастика, детский, короткометражный
    Главный режиссер: Алексей Ерин

    Актеры
    Виктор Бирцев, Миша Эсс

    Сюжет фильма

    Фильм построен на синтезе научно-популярного и игрового кино. Ночью, во время рыбалки, молодой учёный рассказывает своему юному другу о космосе, о системе галактик. И вот в мечтах мальчик переносится в будущее, где он командир космолёта, бороздящего космические пространства.

    Снималось в: СССР/Леннаучфильм
    Время просмотра: 00: 16: 05
    Перевод текста: оригинал
    Файл
    Качество фильма: WEBRip-AVC
    Тип видео: MKV
    Информация о видео: MPEG-4 AVC, 546x480, 25.000 fps, 344 kbps, 0.052 bit/pixel
    Информация о звуке: русский, AC3 2.0, 44.1 kHz, 128 kbps
    MediaInfo
    Формат : Matroska
    Версия формата : Version 4/Version 2
    Размер файла : 55, 4 Мбайт
    Продолжительность : 16 м.
    Общий поток : 481 Кбит/сек
    Дата кодирования : UTC 2016-11-10 10: 43: 44
    Программа кодирования : mkvmerge v7.9.0 (;Birds;) 64bit
    Библиотека кодирования : libebml v1.3.1 + libmatroska v1.4.2
    Видео
    Идентификатор : 1
    Формат : AVC
    Формат/Информация : Advanced Video Codec
    Профиль формата : Main@L3
    Параметр CABAC формата : Да
    Параметр ReFrames формата : 3 кадра
    Идентификатор кодека : V_MPEG4/ISO/AVC
    Продолжительность : 16 м.
    Битрейт : 344 Кбит/сек
    Ширина : 546 пикселей
    Высота : 480 пикселей
    Соотношение сторон : 1, 138
    Режим частоты кадров : Постоянный
    Частота кадров : 25, 000 кадров/сек
    Цветовое пространство : YUV
    Субдискретизация насыщенности : 4: 2: 0
    Битовая глубина : 8 бит
    Тип развёртки : Прогрессивная
    Бит/(Пиксели*Кадры) : 0.052
    Размер потока : 39, 6 Мбайт (71%)
    Язык : Russian
    Default : Да
    Forced : Нет
    Аудио
    Идентификатор : 2
    Формат : AC-3
    Формат/Информация : Audio Coding 3
    Расширение режима : CM (complete main)
    Параметр Endianness формата : Big
    Идентификатор кодека : A_AC3
    Продолжительность : 16 м.
    Вид битрейта : Постоянный
    Битрейт : 128 Кбит/сек
    Каналы : 2 канала
    Расположение каналов : Front: L R
    Частота : 44, 1 КГц
    Метод сжатия : С потерями
    Размер потока : 14, 7 Мбайт (27%)
    Язык : Russian
    Default : Да
    Forced : Нет
    Скриншоты

    Залил: makkaronni

    Онлайн видео Полет к тысячам солнц (1963) WEBRip


    Размер скачиваемого торрента: 55.42 MB (58107160 Bytes)

    Полет к тысячам солнц (1963) WEBRip-AVC
    загрузка...
    Рейтинг →
     (голосов: 1, оценка 4/5, голосовать можно 1 раз )

    Другие торренты по теме:

  • Полет Феникса / Flight of the Phoenix (2004) BDRip 1080p от FREEISLAND
  • Полет бабочки (2013) HDTVRip от Getty
  • Полет бабочки (2013) HDTV 1080i
  • Полет бабочки (2013) SATRip
  • Том и Джерри: Полет на Марс / Tom and Jerry Blast Off to Mars! (2005) BDRip (AVC) от ExKinoRay
  • Полет навигатора / Flight of the Navigator (1986) BDRip от Youtracker
  • Дафна Дю Морье - Полет Сокола (2013) MP3
  • Первый полет / First Flight (2006) WEB-DL 720p


    • Комментарии (0):

      Информация

      Информация

        Посетители, находящиеся в группе Гости, не могут оставлять комментарии в данной новости.

        ↓ Меню



        ↓ Опрос

        А Вы добавили сайт в закладки?
        Да
        Не


        Top 10 за месяц (Фильмы)