.
Авторизация | Регистрация
» » Пока я не исчезну / Before I Disappear (2014) WEB-DLRip от Portablius | P скачать торрент бесплатно




    Пока я не исчезну / Before I Disappear (2014) WEB-DLRip от Portablius | P скачать торрент бесплатно

    Опубликовал: Админ | Дата: 13-11-2016, 05:00 | Просмотров: 8



    Детально о кино
    Русское название: Пока я не исчезну
    Русское название в мировом прокате: Before I Disappear
    Создали в: 2014
    Категория жанра: Драма
    Главный режиссер: Шон Кристенсен

    Актеры
    Эмми Россум, Рон Перлман, Пол Уэсли, Фатима Птацек, Шон Кристенсен, Ричард Шифф, Стефани Курцуба, Виктор Круз, Джозеф Перрино, Дж. Элейн Маркос

    Сюжет фильма
    Представляя собой версию оскароносной короткометражки Сейчас или никогда, фильм Пока я не исчезну (Before I Disappear) рассказывает историю Ричи (Шон Кристенсен), человека, который переживает тяжелую депрессию после смерти своей подруги и склоняется к мысли покончить жизнь самоубийством. В один из самых непростых моментов его жизни раздается звонок от его младшей сестры Мэгги (Эмми Россам), которая просит мужчину присмотреть на протяжении нескольких часов за ее дочерью. Решив, что сведение счетов с жизнью может и подождать некоторое время, герой картины Пока я не исчезну соглашается позаботиться о своей племяннице Софии ...

    Снималось в: США, Великобритания
    Киностудия: Fuzzy Logic Pictures, Strongman, Wigwam Films
    Время просмотра: 01: 38: 16
    Перевод текста: Профессиональный (многоголосый, закадровый) FocusStudio
    Субтитры: Нет
    Семпл
    Файл
    Кодек для видео: XviD
    Качество фильма: WEB-DLRip
    Информация о видео: 704x288 (2.44: 1), 23.976 fps, XviD build 73 ~858 kbps avg, 0.18 bit/pixel
    Информация о звуке: 48 kHz, MPEG Layer 3, 2 ch, ~192.00 kbps avg
    MediaInfo
    Общее
    Полное имя : Before.I.Disappear.2014.WEB-DLRip.ot.Portablius.avi
    Формат : AVI
    Формат/Информация : Audio Video Interleave
    Размер файла : 745 Мбайт
    Продолжительность : 1 ч. 38 м.
    Общий поток : 1060 Кбит/сек
    Программа кодирования : VirtualDubMod 1.5.10.3 | www.virtualdub-fr.org || (build 2550/release)
    Библиотека кодирования : VirtualDubMod build 2550/release
    Видео
    Идентификатор : 0
    Формат : MPEG-4 Visual
    Профиль формата : Advanced Simple@L5
    Параметр BVOP формата : 1
    Параметр QPel формата : Нет
    Параметр GMC формата : Без точки перехода
    Параметр матрицы формата : Выборочная
    Идентификатор кодека : XVID
    Идентификатор кодека/Подсказка : XviD
    Продолжительность : 1 ч. 38 м.
    Битрейт : 859 Кбит/сек
    Ширина : 704 пикселя
    Высота : 288 пикселей
    Соотношение сторон : 2, 40: 1
    Частота кадров : 23, 976 (23976/1000) кадра/сек
    Цветовое пространство : YUV
    Субдискретизация насыщенности : 4: 2: 0
    Битовая глубина : 8 бит
    Тип развёртки : Прогрессивная
    Метод сжатия : С потерями
    Бит/(Пиксели*Кадры) : 0.177
    Размер потока : 604 Мбайт (81%)
    Библиотека кодирования : XviD 73
    Аудио
    Идентификатор : 1
    Формат : MPEG Audio
    Версия формата : Version 1
    Профиль формата : Layer 3
    Идентификатор кодека : 55
    Идентификатор кодека/Подсказка : MP3
    Продолжительность : 1 ч. 38 м.
    Вид битрейта : Постоянный
    Битрейт : 192 Кбит/сек
    Каналы : 2 канала
    Частота : 48, 0 КГц
    Метод сжатия : С потерями
    Размер потока : 135 Мбайт (18%)
    Выравнивание : Соединение по промежуткам
    Продолжительность промежутка : 42 мс. (1, 00 видеокадр)
    Время предзагрузки промежутка : 504 мс.
    Библиотека кодирования : LAME3.99r
    Залил: Evgen Portable

    Онлайн видео Пока я не исчезну


    Размер скачиваемого торрента: 745.18 MB (781381632 Bytes)


    Пока я не исчезну/Before I Disappear (2014) WEB-DLRip от Portablius | P
    загрузка...
    Рейтинг →
     (голосов: 1, оценка 5/5, голосовать можно 1 раз )

    Другие торренты по теме:

  • Пока я не исчезну / Before I Disappear (2014) WEB-DLRip | P скачать торрент бесплатно


    • Комментарии (0):

      Информация

      Информация

        Посетители, находящиеся в группе Гости, не могут оставлять комментарии в данной новости.

        ↓ Меню



        ↓ Опрос

        А Вы добавили сайт в закладки?
        Да
        Не


        Top 10 за неделю (Фильмы)