.
Авторизация | Регистрация
» » Любой ценой / Hell or High Water (2016) BDRemux 1080p от ExKinoRay | iTunes скачать торрент бесплатно




    Любой ценой / Hell or High Water (2016) BDRemux 1080p от ExKinoRay | iTunes скачать торрент бесплатно

    Опубликовал: Админ | Дата: 13-11-2016, 05:00 | Просмотров: 29



    Детально о кино
    Русское название: Любой ценой
    Русское название в мировом прокате: Hell or High Water
    Создали в: 2016
    Категория жанра: Драма, криминал
    Главный режиссер: Дэвид Маккензи

    Актеры
    Джефф Бриджес, Крис Пайн, Бен Фостер, Джил Бирмингем, Дейл Дикки, Уильям Стерчи, Бак Тейлор, Кристин Берг, Кит Мэривезер, Жакмо Буззел
    О фильме:
    Им нужно совсем немного. Каких-то пару тысяч долларов, чтоб выкупить закладную и переписать дом на детей. А значит, окрестным банкам не уйти от дерзких налетов двух отчаянных братьев. Старший - рассудителен, младший - горяч, но так или иначе, а на этом пути им придется столкнуться с рейнджером Гамильтоном! И хотя до пенсии ему пару недель, но если закон был нарушен, значит, нарушителям уже несдобровать. К тому же, в напарниках у Гамильтона - офицер-краснокожий...

    Снималось в: США
    Киностудия: Film 44, Odd Lot Entertainment, Sidney Kimmel Entertainment
    Время просмотра: 01: 42: 15
    Перевод текста: Дублированный | iTunes
    Файл
    Кодек для видео: MPEG-4
    Качество фильма: BDRemux 1080p
    Информация о видео: 1920x1080, 29.8 Mbit/s, 23.976 fps
    Информация о звуке:
    Информация о звуке #01: 48 kHz, AC3, 5.1, 384 Kbps | Дублированный | iTunes |
    Информация о звуке #02: 48 kHz, DTS-HD MA, 5.1, 3561 kbps | Оригинал |
    Субтитры: Английские
    MI
    General
    Unique ID : 176290676472751280443910436187555298875 (0x84A05969FD360744BCF7167DC5F0FE3B)
    Complete name : G: VideoHell.or.High.Water.2016.BDREMUX.1080p.ExKinoRay.mkv
    Format : Matroska
    Format version : Version 4/Version 2
    File size : 24.1 GiB
    Duration : 1 h 42 min
    Overall bit rate mode : Variable
    Overall bit rate : 33.8 Mb/s
    Movie name : Hell or High Water 2016 build by ***селезень***
    Encoded date : UTC 2016-11-12 15: 28: 32
    Writing application : mkvmerge v8.3.0 (;Over the Horizon;) 64bit
    Writing library : libebml v1.3.1 + libmatroska v1.4.2
    Video
    ID : 1
    Format : AVC
    Format/Info : Advanced Video Codec
    Format profile : High@L4.1
    Format settings, CABAC : Yes
    Format settings, ReFrames : 4 frames
    Codec ID : V_MPEG4/ISO/AVC
    Duration : 1 h 42 min
    Bit rate mode : Variable
    Bit rate : 29.8 Mb/s
    Maximum bit rate : 35.0 Mb/s
    Width : 1 920 pixels
    Height : 1 080 pixels
    Display aspect ratio : 16: 9
    Frame rate mode : Constant
    Frame rate : 23.976 (24000/1001) FPS
    Standard : NTSC
    Color space : YUV
    Chroma subsampling : 4: 2: 0
    Bit depth : 8 bits
    Scan type : Progressive
    Bits/(Pixel*Frame) : 0.600
    Stream size : 21.3 GiB (88%)
    Title : Hell or High Water 2016 build by ***селезень***
    Language : English
    Default : Yes
    Forced : No
    Color range : Limited
    Color primaries : BT.709
    Transfer characteristics : BT.709
    Matrix coefficients : BT.709
    Audio #1
    ID : 2
    Format : AC-3
    Format/Info : Audio Coding 3
    Mode extension : CM (complete main)
    Format settings, Endianness : Big
    Codec ID : A_AC3
    Duration : 1 h 42 min
    Bit rate mode : Constant
    Bit rate : 384 kb/s
    Channel(s) : 6 channels
    Channel positions : Front: L C R, Side: L R, LFE
    Sampling rate : 48.0 kHz
    Frame rate : 31.250 FPS (1536 spf)
    Compression mode : Lossy
    Stream size : 281 MiB (1%)
    Title : iTunes
    Language : Russian
    Default : Yes
    Forced : No
    Audio #2
    ID : 3
    Format : DTS
    Format/Info : Digital Theater Systems
    Format profile : MA/Core
    Mode : 16
    Format settings, Endianness : Big
    Codec ID : A_DTS
    Duration : 1 h 42 min
    Bit rate mode : Variable/Constant
    Bit rate : 3 561 kb/s/1 509 kb/s
    Channel(s) : 6 channels
    Channel positions : Front: L C R, Side: L R, LFE
    Sampling rate : 48.0 kHz
    Frame rate : 93.750 FPS (512 spf)
    Bit depth : 24 bits
    Compression mode : Lossless/Lossy
    Stream size : 2.54 GiB (11%)
    Title : Original
    Language : English
    Default : No
    Forced : No
    Text
    ID : 4
    Format : UTF-8
    Codec ID : S_TEXT/UTF8
    Codec ID/Info : UTF-8 Plain Text
    Duration : 1 h 34 min
    Bit rate : 52 b/s
    Count of elements : 1167
    Stream size : 36.7 KiB (0%)
    Title : Full
    Language : English
    Default : No
    Forced : No
    Menu
    00: 00: 00.000 : en: Chapter 1
    00: 09: 37.243 : en: Chapter 2
    00: 13: 50.454 : en: Chapter 3
    00: 22: 14.583 : en: Chapter 4
    00: 28: 40.385 : en: Chapter 5
    00: 31: 54.329 : en: Chapter 6
    00: 40: 49.613 : en: Chapter 7
    00: 46: 49.932 : en: Chapter 8
    00: 55: 45.091 : en: Chapter 9
    01: 02: 06.472 : en: Chapter 10
    01: 09: 52.897 : en: Chapter 11
    01: 14: 04.648 : en: Chapter 12
    01: 20: 56.226 : en: Chapter 13
    01: 29: 09.135 : en: Chapter 14
    01: 35: 03.864 : en: Chapter 15
    01: 38: 28.277 : en: Chapter 16


    Релиз подготовил: Автор релиза:

    Онлайн видео Любой ценой


    Размер скачиваемого торрента: 24.12 GB (25901615901 Bytes)

    Любой ценой/Hell or High Water (2016) BDRemux 1080p от ExKinoRay | iTunes
    загрузка...
    Рейтинг →
     (голосов: 1, оценка 4/5, голосовать можно 1 раз )

    Другие торренты по теме:

  • Следствие вели. Любой ценой! (2013) SATRip торрент скачать бесплатно
  • Discovery: Выжить любой ценой / Ultimate Survival / Man vs. Wild (2006-2011) DVDRip, HDTVRip | P1 торрент скачать бесплатно
  • Любой ценой / At Any Price (2012) HDRip | P2 торрент скачать бесплатно
  • Любой ценой / At Any Price (2012) BDRip-AVC от HELLYWOOD | P2 торрент скачать бесплатно
  • Париж любой ценой / Paris tout prix (2013) BDRip 720p | Чистый звук торрент скачать бесплатно
  • Париж любой ценой / Paris tout prix (2013) HDRip | Чистый звук торрент скачать бесплатно
  • Париж любой ценой / Paris tout prix (2013) HDRip от Один 777 | Чистый звук скачать через торрент бесплатно
  • Париж любой ценой / Paris tout prix (2013) HDRip от -=HD-NET=- | КПК | Чистый звук торрент скачать бесплатно


    • Комментарии (0):

      Информация

      Информация

        Посетители, находящиеся в группе Гости, не могут оставлять комментарии в данной новости.

        ↓ Меню



        ↓ Опрос

        А Вы добавили сайт в закладки?
        Да
        Не


        Top 10 за неделю (Фильмы)