.
Авторизация | Регистрация
Хочешь лучшие торренты? Добавь свой email!
Добавить
» » Я есть гнев / I Am Wrath (2016) BDRip 720p от ExKinoRay | A торрент скачать бесплатно




    Я есть гнев / I Am Wrath (2016) BDRip 720p от ExKinoRay | A торрент скачать бесплатно

    Опубликовал: Админ | Дата: 13-11-2016, 05:01 | Просмотров: 61



    Детально о кино
    Русское название: Я есть гнев
    Русское название в мировом прокате: I Am Wrath
    Создали в: 2016
    Категория жанра: Боевик, триллер, драма, криминал
    Главный режиссер: Чак Расселл

    Актеры
    Джон Траволта, Майкл Уррикуа, Ребекка Де Морнэй, Кристофер Мелони, Аманда Шулл, Сэм Трэммелл, Патрик Ст. Эсприт, Луис Да Силва мл., Дорис Моргадо
    О фильме:
    История человека, чью жену убили и который, отчаявшись дождаться каких-то действий со стороны полиции, решает сам найти преступника и покарать его.

    Снималось в: США
    Киностудия: Patriot Pictures LLC, Vallelonga Productions, Vengeance is Mine Productions
    Время просмотра: 01: 30: 35
    Перевод текста: Авторский | В. Котов
    Файл
    Кодек для видео: MPEG-4
    Качество фильма: BDRip 720p
    Информация о видео: 1280x534, 5378 Kbit/s, 23.976 fps
    Информация о звуке:
    Информация о звуке #01: 48 kHz, DTS, 5.1, 1510 Kbps | Авторский |
    Информация о звуке #02: 48 kHz, AC3, 5.1, 640 Kbps | Авторский |
    Информация о звуке #03: 48 kHz, AC3, 5.1, 640 kbps | Оригинал |
    Субтитры: Русские, английские
    MI
    General
    Unique ID : 187809911004731220155285255923864592973 (0x8D4ADF8679872F19987B16F42212624D)
    Complete name : H: VideoI.Am.Wrath.2016.AVO.BDRip.720p.ExKinoRay.mkv
    Format : Matroska
    Format version : Version 4/Version 2
    File size : 5.17 GiB
    Duration : 1 h 30 min
    Overall bit rate : 8 170 kb/s
    Movie name : I Am Wrath 2016 ***селезень***
    Encoded date : UTC 2016-11-11 04: 32: 00
    Writing application : mkvmerge v8.3.0 (;Over the Horizon;) 64bit
    Writing library : libebml v1.3.1 + libmatroska v1.4.2
    Video
    ID : 1
    Format : AVC
    Format/Info : Advanced Video Codec
    Format profile : High@L4.1
    Format settings, CABAC : Yes
    Format settings, ReFrames : 12 frames
    Codec ID : V_MPEG4/ISO/AVC
    Duration : 1 h 30 min
    Bit rate : 5 378 kb/s
    Width : 1 280 pixels
    Height : 534 pixels
    Display aspect ratio : 2.40: 1
    Frame rate mode : Constant
    Frame rate : 23.976 (24000/1001) FPS
    Color space : YUV
    Chroma subsampling : 4: 2: 0
    Bit depth : 8 bits
    Scan type : Progressive
    Bits/(Pixel*Frame) : 0.328
    Stream size : 3.40 GiB (66%)
    Writing library : x264 core 148 r2692kMod 64f4e24
    Encoding settings : cabac=1/ref=12/deblock=1: -3: -3/analyse=0x3: 0x133/me=umh/subme=10/psy=1/fade_compensate=0.00/psy_rd=1.00: 0.00/mixed_ref=1/me_range=32/chroma_me=1/trellis=2/8x8dct=1/cqm=0/deadzone=21, 11/fast_pskip=1/chroma_qp_offset=-2/threads=8/lookahead_threads=2/sliced_threads=0/nr=0/decimate=1/interlaced=0/bluray_compat=0/constrained_intra=0/fgo=0/bframes=10/b_pyramid=2/b_adapt=2/b_bias=0/direct=3/weightb=1/open_gop=0/weightp=2/keyint=250/keyint_min=23/scenecut=40/intra_refresh=0/rc_lookahead=150/rc=crf/mbtree=0/crf=14.5000/qcomp=0.65/qpmin=0/qpmax=69/qpstep=4/vbv_maxrate=50000/vbv_bufsize=62500/crf_max=0.0/nal_hrd=none/filler=0/ip_ratio=1.30/pb_ratio=1.20/aq=3: 0.70/zones=34, 560, crf=13.5/866, 1032, crf=13.5/29865, 30373, crf=13.5/31842, 31882, crf=14.0/59159, 59193, crf=13.5/81815, 81910, crf=14.0/96721, 97427, crf=13.5/109638, 110950, crf=14.0
    Language : English
    Default : Yes
    Forced : No
    Audio #1
    ID : 2
    Format : DTS
    Format/Info : Digital Theater Systems
    Mode : 16
    Format settings, Endianness : Big
    Codec ID : A_DTS
    Duration : 1 h 30 min
    Bit rate mode : Constant
    Bit rate : 1 509 kb/s
    Channel(s) : 6 channels
    Channel positions : Front: L C R, Side: L R, LFE
    Sampling rate : 48.0 kHz
    Frame rate : 93.750 FPS (512 spf)
    Bit depth : 16 bits
    Compression mode : Lossy
    Stream size : 978 MiB (18%)
    Title : AVO-DTS Kotov
    Language : Russian
    Default : Yes
    Forced : No
    Audio #2
    ID : 3
    Format : AC-3
    Format/Info : Audio Coding 3
    Mode extension : CM (complete main)
    Format settings, Endianness : Big
    Codec ID : A_AC3
    Duration : 1 h 30 min
    Bit rate mode : Constant
    Bit rate : 640 kb/s
    Channel(s) : 6 channels
    Channel positions : Front: L C R, Side: L R, LFE
    Sampling rate : 48.0 kHz
    Frame rate : 31.250 FPS (1536 spf)
    Bit depth : 16 bits
    Compression mode : Lossy
    Stream size : 415 MiB (8%)
    Title : AVO-AC3 Kotov
    Language : Russian
    Default : No
    Forced : No
    Audio #3
    ID : 4
    Format : AC-3
    Format/Info : Audio Coding 3
    Mode extension : CM (complete main)
    Format settings, Endianness : Big
    Codec ID : A_AC3
    Duration : 1 h 30 min
    Bit rate mode : Constant
    Bit rate : 640 kb/s
    Channel(s) : 6 channels
    Channel positions : Front: L C R, Side: L R, LFE
    Sampling rate : 48.0 kHz
    Frame rate : 31.250 FPS (1536 spf)
    Bit depth : 16 bits
    Compression mode : Lossy
    Stream size : 415 MiB (8%)
    Title : Original
    Language : English
    Default : No
    Forced : No
    Text #1
    ID : 5
    Format : UTF-8
    Codec ID : S_TEXT/UTF8
    Codec ID/Info : UTF-8 Plain Text
    Duration : 1 h 23 min
    Bit rate : 91 b/s
    Count of elements : 882
    Stream size : 56.6 KiB (0%)
    Title : Full
    Language : Russian
    Default : No
    Forced : No
    Text #2
    ID : 6
    Format : UTF-8
    Codec ID : S_TEXT/UTF8
    Codec ID/Info : UTF-8 Plain Text
    Duration : 1 h 23 min
    Bit rate : 57 b/s
    Count of elements : 885
    Stream size : 35.1 KiB (0%)
    Title : Full
    Language : English
    Default : No
    Forced : No
    Text #3
    ID : 7
    Format : UTF-8
    Codec ID : S_TEXT/UTF8
    Codec ID/Info : UTF-8 Plain Text
    Duration : 1 h 23 min
    Bit rate : 60 b/s
    Count of elements : 986
    Stream size : 37.5 KiB (0%)
    Title : SDH
    Language : English
    Default : No
    Forced : No
    Menu
    00: 00: 00.000 : en: Chapter 1
    00: 08: 37.934 : en: Chapter 2
    00: 15: 10.243 : en: Chapter 3
    00: 22: 51.161 : en: Chapter 4
    00: 31: 52.410 : en: Chapter 5
    00: 39: 10.640 : en: Chapter 6
    00: 44: 28.207 : en: Chapter 7
    00: 51: 18.534 : en: Chapter 8
    00: 59: 18.388 : en: Chapter 9
    01: 07: 14.030 : en: Chapter 10
    01: 15: 20.474 : en: Chapter 11
    01: 21: 04.777 : en: Chapter 12


    Релиз подготовил: Автор релиза:

    Онлайн видео Я есть гнев


    Размер скачиваемого торрента: 5.17 GB (5550470916 Bytes)

    Я есть гнев/I Am Wrath (2016) BDRip 720p от ExKinoRay | A
    загрузка...
    Рейтинг →
     (голосов: 1, оценка 4/5, голосовать можно 1 раз )

    Другие торренты по теме:

  • Я есть гнев / I Am Wrath (2016) WEB-DL 720p | L2
  • Я есть гнев / I Am Wrath (2016) BDRip-AVC от NNMClub | L2
  • Я есть гнев / I Am Wrath (2016) HDRip от Scarabey | L2
  • Я есть гнев / I Am Wrath / 2016 / ЛМ / DVD-5
  • Я есть гнев / I Am Wrath (2016) HDRip-AVC | A
  • Я есть гнев / I Am Wrath / 2016 / АП (Котов), СТ / BDRip (1080p)
  • Я есть гнев / I Am Wrath / 2016 / АП (Котов) / BDRip
  • Я есть гнев / I Am Wrath / 2016 / АП (Котов), СТ / Blu-Ray Remux (1080p)


    • Комментарии (0):

      Информация

      Информация

        Посетители, находящиеся в группе Гости, не могут оставлять комментарии в данной новости.

        ↓ Меню



        ↓ Опрос

        А Вы добавили сайт в закладки?
        Да
        Не


        Top 10 за месяц (Фильмы)