.
Авторизация | Регистрация
» » Механик: Воскрешение / Mechanic: Resurrection (2016) BDRip 1080p от ExKinoRay | iTunes скачать торрент бесплатно




    Механик: Воскрешение / Mechanic: Resurrection (2016) BDRip 1080p от ExKinoRay | iTunes скачать торрент бесплатно

    Опубликовал: Админ | Дата: 14-11-2016, 05:00 | Просмотров: 16



    Детально о кино
    Русское название: Механик: Воскрешение
    Русское название в мировом прокате: Mechanic: Resurrection
    Создали в: 2016
    Категория жанра: Боевик, триллер, криминал
    Главный режиссер: Дэннис Ганзель

    Актеры
    Джейсон Стэйтем, Джессика Альба, Томми Ли Джонс, Мишель Йео, Наталия Гуслистая, Ейяинг Рхатха Пхонгам, Сэм Хэзелдайн, Джон Ченатьемпо, Райчо Василев, Аарон Брамфилд
    О фильме:
    Артура Бишопа, давно оставившего свое криминальное ремесло, вынуждают снова вступить в игру. Чтобы похитители вернули его возлюбленную, он должен сделать то, что у него получается лучше всего: от него требуется совершить три убийства, идеально обставленных как несчастные случаи.

    Снималось в: Франция, США
    Киностудия: Chartoff-Winkler Productions, Davis-Films, ME2 Productions, Millennium Films
    Время просмотра: 01: 38: 39
    Перевод текста: Дублированный | iTunes
    Файл
    Кодек для видео: MPEG-4
    Качество фильма: BDRip 1080p
    Информация о видео: 1920x804, 7163 Кbit/s, 23.976 fps
    Информация о звуке:
    Информация о звуке #01: 48 kHz, AC3, 5.1, 384 Kbps | Дублированный | iTunes |
    Информация о звуке #02: 48 kHz, DTS, 5.1, 1536 kbps | Оригинал |
    Субтитры: Английские
    MI
    General
    Unique ID : 241284414293330804482037971748686550908 (0xB585B0179A3FE188830614CD9ABE577C)
    Complete name : G: VideoMechanic.Resurrection.2016.BDRip.1080p.ExKinoRay.mkv
    Format : Matroska
    Format version : Version 4/Version 2
    File size : 6.26 GiB
    Duration : 1 h 38 min
    Overall bit rate : 9 086 kb/s
    Movie name : Mechanic.Resurrection.2016. ***селезень***
    Encoded date : UTC 2016-11-13 05: 29: 51
    Writing application : mkvmerge v8.3.0 (;Over the Horizon;) 64bit
    Writing library : libebml v1.3.1 + libmatroska v1.4.2
    Video
    ID : 1
    Format : AVC
    Format/Info : Advanced Video Codec
    Format profile : High@L4.1
    Format settings, CABAC : Yes
    Format settings, ReFrames : 5 frames
    Codec ID : V_MPEG4/ISO/AVC
    Duration : 1 h 38 min
    Bit rate : 7 163 kb/s
    Width : 1 920 pixels
    Height : 804 pixels
    Display aspect ratio : 2.40: 1
    Frame rate mode : Constant
    Frame rate : 23.976 (24000/1001) FPS
    Color space : YUV
    Chroma subsampling : 4: 2: 0
    Bit depth : 8 bits
    Scan type : Progressive
    Bits/(Pixel*Frame) : 0.194
    Stream size : 4.94 GiB (79%)
    Title : Mechanic.Resurrection.2016. ***селезень***
    Writing library : x264 core 148 r2705+45 bdacf7a 7mod 8-bit@all X86_64
    Encoding settings : cabac=1/ref=5/deblock=1: -3: -3/analyse=0x3: 0x113/me=umh/subme=11/psy=1/fade_compensate=0.00/psy_rd=1.00: 0.05/mixed_ref=1/me_range=32/chroma_me=1/trellis=2/8x8dct=1/cqm=0/deadzone=21, 11/fast_pskip=0/chroma_qp_offset=-2/threads=32/lookahead_threads=5/sliced_threads=0/nr=0/decimate=1/interlaced=0/bluray_compat=0/constrained_intra=0/fgo=0/bframes=8/b_pyramid=2/b_adapt=2/b_bias=0/direct=3/weightb=1/open_gop=0/weightp=2/keyint=250/keyint_min=23/scenecut=40/intra_refresh=0/rc_lookahead=40/rc=crf/mbtree=0/crf=18.1000/qcomp=0.60/qpmin=0: 0: 0/qpmax=69: 69: 69/qpstep=4/vbv_maxrate=50000/vbv_bufsize=40000/crf_max=0.0/nal_hrd=none/filler=0/ip_ratio=1.40/pb_ratio=1.30/aq=4: 0.90/aq-sensitivity=10.00/aq-factor=1.00: 1.00: 1.00/aq2=0/aq3=0
    Language : English
    Default : Yes
    Forced : No
    Audio #1
    ID : 2
    Format : AC-3
    Format/Info : Audio Coding 3
    Mode extension : CM (complete main)
    Format settings, Endianness : Big
    Codec ID : A_AC3
    Duration : 1 h 38 min
    Bit rate mode : Constant
    Bit rate : 384 kb/s
    Channel(s) : 6 channels
    Channel positions : Front: L C R, Side: L R, LFE
    Sampling rate : 48.0 kHz
    Frame rate : 31.250 FPS (1536 spf)
    Compression mode : Lossy
    Stream size : 271 MiB (4%)
    Title : iTunes
    Language : Russian
    Default : Yes
    Forced : No
    Audio #2
    ID : 3
    Format : DTS
    Format/Info : Digital Theater Systems
    Mode : 16
    Format settings, Endianness : Big
    Codec ID : A_DTS
    Duration : 1 h 38 min
    Bit rate mode : Constant
    Bit rate : 1 536 kb/s
    Channel(s) : 6 channels
    Channel positions : Front: L C R, Side: L R, LFE
    Sampling rate : 48.0 kHz
    Frame rate : 93.750 FPS (512 spf)
    Bit depth : 16 bits
    Compression mode : Lossy
    Stream size : 1.06 GiB (17%)
    Title : Original
    Language : English
    Default : No
    Forced : No
    Text #1
    ID : 4
    Format : UTF-8
    Codec ID : S_TEXT/UTF8
    Codec ID/Info : UTF-8 Plain Text
    Duration : 1 h 30 min
    Bit rate : 29 b/s
    Count of elements : 631
    Stream size : 19.8 KiB (0%)
    Title : Full
    Language : English
    Default : No
    Forced : No
    Text #2
    ID : 5
    Format : UTF-8
    Codec ID : S_TEXT/UTF8
    Codec ID/Info : UTF-8 Plain Text
    Duration : 1 h 33 min
    Bit rate : 34 b/s
    Count of elements : 847
    Stream size : 23.8 KiB (0%)
    Title : SDH
    Language : English
    Default : No
    Forced : No
    Menu
    00: 00: 00.000 : en: 00: 00: 00.000
    00: 06: 34.936 : en: 00: 06: 34.936
    00: 11: 51.336 : en: 00: 11: 51.336
    00: 18: 31.277 : en: 00: 18: 31.277
    00: 26: 04.897 : en: 00: 26: 04.897
    00: 31: 57.540 : en: 00: 31: 57.540
    00: 38: 31.267 : en: 00: 38: 31.267
    00: 43: 35.696 : en: 00: 43: 35.696
    00: 49: 23.210 : en: 00: 49: 23.210
    00: 54: 20.382 : en: 00: 54: 20.382
    01: 00: 09.856 : en: 01: 00: 09.856
    01: 05: 50.446 : en: 01: 05: 50.446
    01: 10: 25.429 : en: 01: 10: 25.429
    01: 14: 52.363 : en: 01: 14: 52.363
    01: 21: 04.860 : en: 01: 21: 04.860
    01: 31: 38.785 : en: 01: 31: 38.785


    Релиз подготовил: Автор релиза:

    Онлайн видео Механик: Воскрешение


    Размер скачиваемого торрента: 6.26 GB (6722231456 Bytes)

    Механик: Воскрешение/Mechanic: Resurrection (2016) BDRip 1080p от ExKinoRay | iTunes
    загрузка...
    Рейтинг →
     (голосов: 1, оценка 5/5, голосовать можно 1 раз )

    Другие торренты по теме:



      Комментарии (0):

      Информация

      Информация

        Посетители, находящиеся в группе Гости, не могут оставлять комментарии в данной новости.

        ↓ Меню



        ↓ Опрос

        А Вы добавили сайт в закладки?
        Да
        Не


        Top 10 за неделю (Фильмы)