.
Авторизация | Регистрация
Хочешь лучшие торренты? Добавь свой email!
Добавить
» » Парни со стволами / War Dogs (2016) BDRip 720p от ExKinoRay | iTunes торрент скачать бесплатно




    Парни со стволами / War Dogs (2016) BDRip 720p от ExKinoRay | iTunes торрент скачать бесплатно

    Опубликовал: Админ | Дата: 14-11-2016, 05:02 | Просмотров: 51



    Детально о кино
    Русское название: Парни со стволами
    Русское название в мировом прокате: War Dogs
    Создали в: 2016
    Категория жанра: Драма, комедия, военный
    Главный режиссер: Тодд Филлипс

    Актеры
    Майлз Теллер, Джона Хилл, Стив Лэнц, Грегг Уэйнер, Эдди Джемисон, Джулиан Сержи, Дэниэл Берсон, Эдсон Жан, Брэдли Купер
    О фильме:
    Реальная история о приятелях-планокурах из Майами, умудрившихся выбить в Пентагоне контракт на 300 миллионов долларов на поставку оружия.

    Снималось в: США
    Киностудия: Green Hat Films, Mark Gordon Company
    Время просмотра: 01: 54: 13
    Перевод текста: Дублированный
    Файл
    Кодек для видео: MPEG-4
    Качество фильма: BDRip 720p
    Информация о видео: 1280x534, 4300 Kbit/s, 23.976 fps
    Информация о звуке:
    Информация о звуке #01: 48 kHz, AC3, 5.1, 384 Kbps | Дублированный | iTunes |
    Информация о звуке #02: 48 kHz, DTS, 5.1, 1510 kbps | Оригинал |
    Субтитры: Русские (forced, full), английские
    MI
    General
    Unique ID : 174791732337508106833325388031848825133 (0x837FA9C32690CFCAB33E9F80A327412D)
    Complete name : G: VideoWar.Dogs.2016.BDRip.720p.ExKinoRay.mkv
    Format : Matroska
    Format version : Version 4/Version 2
    File size : 4.94 GiB
    Duration : 1 h 54 min
    Overall bit rate : 6 196 kb/s
    Movie name : War.Dogs.2016 ***селезень***
    Encoded date : UTC 2016-11-12 05: 22: 59
    Writing application : mkvmerge v8.3.0 (;Over the Horizon;) 64bit
    Writing library : libebml v1.3.1 + libmatroska v1.4.2
    Video
    ID : 1
    Format : AVC
    Format/Info : Advanced Video Codec
    Format profile : High@L4.1
    Format settings, CABAC : Yes
    Format settings, ReFrames : 12 frames
    Codec ID : V_MPEG4/ISO/AVC
    Duration : 1 h 54 min
    Bit rate : 4 300 kb/s
    Width : 1 280 pixels
    Height : 534 pixels
    Display aspect ratio : 2.40: 1
    Frame rate mode : Constant
    Frame rate : 23.976 (24000/1001) FPS
    Color space : YUV
    Chroma subsampling : 4: 2: 0
    Bit depth : 8 bits
    Scan type : Progressive
    Bits/(Pixel*Frame) : 0.262
    Stream size : 3.43 GiB (69%)
    Title : War.Dogs.2016 ***селезень***
    Writing library : x264 core 148 r2665kMod a01e339
    Encoding settings : cabac=1/ref=12/deblock=1: -3: -3/analyse=0x3: 0x133/me=umh/subme=11/psy=1/fade_compensate=0.00/psy_rd=1.05: 0.00/mixed_ref=1/me_range=32/chroma_me=1/trellis=2/8x8dct=1/cqm=0/deadzone=21, 11/fast_pskip=0/chroma_qp_offset=-2/threads=17/lookahead_threads=2/sliced_threads=0/nr=0/decimate=0/interlaced=0/bluray_compat=0/constrained_intra=0/fgo=0/bframes=8/b_pyramid=2/b_adapt=2/b_bias=0/direct=3/weightb=1/open_gop=0/weightp=2/keyint=240/keyint_min=24/scenecut=40/intra_refresh=0/rc=2pass/mbtree=0/bitrate=4300/ratetol=1.0/qcomp=0.70/qpmin=0/qpmax=69/qpstep=4/cplxblur=20.0/qblur=0.5/ip_ratio=1.20/pb_ratio=1.20/aq=3: 0.85
    Language : English
    Default : Yes
    Forced : No
    Audio #1
    ID : 2
    Format : AC-3
    Format/Info : Audio Coding 3
    Mode extension : CM (complete main)
    Format settings, Endianness : Big
    Codec ID : A_AC3
    Duration : 1 h 54 min
    Bit rate mode : Constant
    Bit rate : 384 kb/s
    Channel(s) : 6 channels
    Channel positions : Front: L C R, Side: L R, LFE
    Sampling rate : 48.0 kHz
    Frame rate : 31.250 FPS (1536 spf)
    Compression mode : Lossy
    Stream size : 314 MiB (6%)
    Title : iTunes
    Language : Russian
    Default : Yes
    Forced : No
    Audio #2
    ID : 3
    Format : DTS
    Format/Info : Digital Theater Systems
    Mode : 16
    Format settings, Endianness : Big
    Codec ID : A_DTS
    Duration : 1 h 54 min
    Bit rate mode : Constant
    Bit rate : 1 509 kb/s
    Channel(s) : 6 channels
    Channel positions : Front: L C R, Side: L R, LFE
    Sampling rate : 48.0 kHz
    Frame rate : 93.750 FPS (512 spf)
    Bit depth : 24 bits
    Compression mode : Lossy
    Stream size : 1.20 GiB (24%)
    Title : Original
    Language : English
    Default : No
    Forced : No
    Text #1
    ID : 4
    Format : UTF-8
    Codec ID : S_TEXT/UTF8
    Codec ID/Info : UTF-8 Plain Text
    Duration : 1 h 48 min
    Bit rate : 2 b/s
    Count of elements : 42
    Stream size : 1.77 KiB (0%)
    Title : Forced
    Language : Russian
    Default : Yes
    Forced : No
    Text #2
    ID : 5
    Format : UTF-8
    Codec ID : S_TEXT/UTF8
    Codec ID/Info : UTF-8 Plain Text
    Duration : 1 h 53 min
    Bit rate : 110 b/s
    Count of elements : 1297
    Stream size : 91.5 KiB (0%)
    Title : Full
    Language : Russian
    Default : No
    Forced : No
    Text #3
    ID : 6
    Format : UTF-8
    Codec ID : S_TEXT/UTF8
    Codec ID/Info : UTF-8 Plain Text
    Duration : 1 h 47 min
    Bit rate : 71 b/s
    Count of elements : 1773
    Stream size : 56.2 KiB (0%)
    Title : Full
    Language : English
    Default : No
    Forced : No
    Text #4
    ID : 7
    Format : UTF-8
    Codec ID : S_TEXT/UTF8
    Codec ID/Info : UTF-8 Plain Text
    Duration : 1 h 47 min
    Bit rate : 76 b/s
    Count of elements : 1921
    Stream size : 60.3 KiB (0%)
    Title : SDH
    Language : English
    Default : No
    Forced : No
    Menu
    00: 00: 00.000 : en: Chapter 01
    00: 10: 13.487 : en: Chapter 02
    00: 19: 00.848 : en: Chapter 03
    00: 30: 21.110 : en: Chapter 04
    00: 40: 02.149 : en: Chapter 05
    00: 50: 56.178 : en: Chapter 06
    00: 59: 34.237 : en: Chapter 07
    01: 10: 59.213 : en: Chapter 08
    01: 20: 08.720 : en: Chapter 09
    01: 32: 06.020 : en: Chapter 10
    01: 39: 36.011 : en: Chapter 11
    01: 48: 19.117 : en: Chapter 12


    Релиз подготовил: Автор релиза:

    Онлайн видео Парни со стволами


    Размер скачиваемого торрента: 4.94 GB (5307329456 Bytes)

    Парни со стволами/War Dogs (2016) BDRip 720p от ExKinoRay | iTunes
    загрузка...
    Рейтинг →
     (голосов: 1, оценка 3/5, голосовать можно 1 раз )

    Другие торренты по теме:

  • Парни со стволами / War Dogs (2016) TS | D
  • Парни со стволами / War Dogs (2016) BDRip 720p | Line
  • Парни со стволами / War Dogs (2016) BDRip 1080p | iTunes
  • Парни со стволами / War Dogs (2016) BDRip 720p | iTunes
  • Парни со стволами / War Dogs (2016) BDRip-AVC от VickNet | iTunes
  • Парни со стволами / War Dogs (2016) BDRip 1080p от New-Team qqss44 | iTunes
  • Парни со стволами / War Dogs (2016) BDRip-AVC от R.G.Resident | iTunes
  • Парни со стволами / War Dogs (2016) BDRip от MegaPeer | iTunes


    • Комментарии (0):

      Информация

      Информация

        Посетители, находящиеся в группе Гости, не могут оставлять комментарии в данной новости.

        ↓ Меню



        ↓ Опрос

        А Вы добавили сайт в закладки?
        Да
        Не


        Top 10 за месяц (Фильмы)