.
Авторизация | Регистрация
Хочешь лучшие торренты? Добавь свой email!
Добавить
» » Демоны / Demoni (1985) BDRip 720p by msltel | P, A, L1 торрент скачать бесплатно




    Демоны / Demoni (1985) BDRip 720p by msltel | P, A, L1 торрент скачать бесплатно

    Опубликовал: Админ | Дата: 14-11-2016, 05:02 | Просмотров: 168



    Русское название: Демоны
    Русское название в мировом прокате: Demoni
    Создали в: 1985
    Снималось в: Италия
    Категория жанра: ужасы
    Время просмотра: 01: 28: 36
    Перевод текста: профессиональный многоголосый, авторский, профессиональный одноголосый, любительский одноголосый
    Главный режиссёр: Ламберто Бава

    Актеры
    Урбано Барберини, Наташа Хови, Паоло Гоцца, Карл Синни, Фьоре Ардженто, Паола Коццо, Фабиола Толедо, Николетта Элми, Стелио Канделли, Николь Тессьер, Джеретта Джеретта, Бобби Родс, Гуидо Балди, Сэлли Дэй, Элиана Мильо, Жасмин Маймоне, Марчелло Модуньо, Лино Салемме, Энрика Мария Скривано, Алекс Серра, Микеле Соави, Клаудио Спадаро, Сами Хабиб Ахмед, Ламберто Бава, Виктор Бирд, Паоло Корацци, Джованни Фрезза, Клаудио Инсеньо, Серджио Стивалетти, Гоффредо Унгер
    Описание: Молодая девушка Шерил вместе с подругой получает в метро приглашение от странного человека в серебряной маске на премьерный показ нового фильма ужасов о демонах, нашествие которых якобы предсказал Нострадамус. Сеанс должен состояться в одном из только что отремонтированных берлинских кинотеатров под названием Метрополь. В его фойе одна из посетительниц видит манекен в серебряной маске демона и шутки ради примеряет эту маску. Поранившись обо что-то острое внутри маски, девушка с недовольным видом идет в зал. Происходящее на экране странно напоминает то, что в действительности произошло перед сеансом — та же маска и кто-то из героев поранился о неё… Как раз на моменте, когда молодой человек на экране читает отрывок из книги Нострадамуса, повествующий о том, что всякий надевший маску превратится в демона, поранившейся посетительнице становится плохо, и она идёт в женскую комнату лишь для того… чтобы пророчество Нострадамуса сбылось… Очень скоро и остальные зрители кинотеатра убедятся в том, что демоны бывают не только на экране, и Шерил вместе с её друзьями по несчастью предстоит кровавая схватка с полчищами порождений ада…

    Качество фильма: BDRip 720p Сравнение с исходником
    Тип видео: MKV
    Информация о видео: MPEG-4 AVC, 5045 Kбит/с, 1196x720, 23, 976 кадра/с
    Информация о звуке 1: русский, AC3, 192 kbps, 2 ch, 48 kHz профессиональный многоголосый, R5
    Информация о звуке 2: русский, AC3, 192 kbps, 2 ch, 48 kHz авторский, Андрей Гаврилов
    Информация о звуке 3: русский, AC3, 192 kbps, 2 ch, 48 kHz авторский, Юрий Живов
    Субтитры 1: русские
    Субтитры 2: английские (для слабослышащих)
    Внешние файлы
    Информация о звуке: русский, AC3, 192 kbps, 2 ch, 48 kHz авторский, Леонид Володарский
    Информация о звуке: русский, AC3, 192 kbps, 2 ch, 48 kHz авторский, Андрей Дольский
    Информация о звуке: русский, AC3, 192 kbps, 2 ch, 48 kHz авторский, Сергей Зереницын (Белов), вариант 1
    Информация о звуке: русский, AC3, 192 kbps, 2 ch, 48 kHz авторский, Сергей Зереницын (Белов), вариант 2
    Информация о звуке: русский, AC3, 192 kbps, 2 ch, 48 kHz любительский одноголосый женский
    Информация о звуке: русский, AC3, 192 kbps, 2 ch, 48 kHz любительский одноголосый
    Информация о звуке: итальянский, 48 kHz, AC3, 2 ch, ~192 kbps avg Оригинал
    Имеются неименованные главы/чаптеры.
    Инфо-файл
    Общее
    Полное имя : D: VideoДемоны.1985.BDRip.720p by msltelДемоны.1985.AVO.rus.А.Дольский.ac3
    Формат : AC-3
    Формат/Информация : Audio Coding 3
    Размер файла : 122 Мбайт
    Продолжительность : 1 ч. 28 м.
    Режим общего битрейта : Постоянный
    Общий поток : 192 Кбит/сек
    Аудио
    Формат : AC-3
    Формат/Информация : Audio Coding 3
    Расширение режима : CM (complete main)
    Параметр Endianness формата : Big
    Продолжительность : 1 ч. 28 м.
    Вид битрейта : Постоянный
    Битрейт : 192 Кбит/сек
    Каналы : 2 канала
    Расположение каналов : Front: L R
    Частота : 48, 0 КГц
    Частота кадров : 31, 250 кадров/сек (1536 spf)
    Метод сжатия : С потерями
    Размер потока : 122 Мбайт (100%)
    Общее
    Полное имя : D: VideoДемоны.1985.BDRip.720p by msltelДемоны.1985.AVO.rus.Л.Володарский.ac3
    Формат : AC-3
    Формат/Информация : Audio Coding 3
    Размер файла : 122 Мбайт
    Продолжительность : 1 ч. 28 м.
    Режим общего битрейта : Постоянный
    Общий поток : 192 Кбит/сек
    Аудио
    Формат : AC-3
    Формат/Информация : Audio Coding 3
    Расширение режима : CM (complete main)
    Параметр Endianness формата : Big
    Продолжительность : 1 ч. 28 м.
    Вид битрейта : Постоянный
    Битрейт : 192 Кбит/сек
    Каналы : 2 канала
    Расположение каналов : Front: L R
    Частота : 48, 0 КГц
    Частота кадров : 31, 250 кадров/сек (1536 spf)
    Метод сжатия : С потерями
    Размер потока : 122 Мбайт (100%)
    Общее
    Полное имя : D: VideoДемоны.1985.BDRip.720p by msltelДемоны.1985.AVO.rus.С.Зереницын, вариант 1.ac3
    Формат : AC-3
    Формат/Информация : Audio Coding 3
    Размер файла : 122 Мбайт
    Продолжительность : 1 ч. 28 м.
    Режим общего битрейта : Постоянный
    Общий поток : 192 Кбит/сек
    Аудио
    Формат : AC-3
    Формат/Информация : Audio Coding 3
    Расширение режима : CM (complete main)
    Параметр Endianness формата : Big
    Продолжительность : 1 ч. 28 м.
    Вид битрейта : Постоянный
    Битрейт : 192 Кбит/сек
    Каналы : 2 канала
    Расположение каналов : Front: L R
    Частота : 48, 0 КГц
    Частота кадров : 31, 250 кадров/сек (1536 spf)
    Метод сжатия : С потерями
    Размер потока : 122 Мбайт (100%)
    Общее
    Полное имя : D: VideoДемоны.1985.BDRip.720p by msltelДемоны.1985.AVO.rus.С.Зереницын, вариант 2.ac3
    Формат : AC-3
    Формат/Информация : Audio Coding 3
    Размер файла : 122 Мбайт
    Продолжительность : 1 ч. 28 м.
    Режим общего битрейта : Постоянный
    Общий поток : 192 Кбит/сек
    Аудио
    Формат : AC-3
    Формат/Информация : Audio Coding 3
    Расширение режима : CM (complete main)
    Параметр Endianness формата : Big
    Продолжительность : 1 ч. 28 м.
    Вид битрейта : Постоянный
    Битрейт : 192 Кбит/сек
    Каналы : 2 канала
    Расположение каналов : Front: L R
    Частота : 48, 0 КГц
    Частота кадров : 31, 250 кадров/сек (1536 spf)
    Метод сжатия : С потерями
    Размер потока : 122 Мбайт (100%)
    Общее
    Уникальный идентификатор : 216165101665997099880950862927887019763 (0xA29FE25C705AFBF6A83559E7F36B2EF3)
    Полное имя : D: VideoДемоны.1985.BDRip.720p by msltelДемоны.1985.BDRip.720p by msltel.mkv
    Формат : Matroska
    Версия формата : Version 4/Version 2
    Размер файла : 3, 48 Гбайт
    Продолжительность : 1 ч. 28 м.
    Общий поток : 5623 Кбит/сек
    Название фильма : Rip by msltel
    Дата кодирования : UTC 2016-11-11 11: 08: 50
    Программа кодирования : mkvmerge v8.2.0 (;World of Adventure;) 64bit
    Библиотека кодирования : libebml v1.3.1 + libmatroska v1.4.2
    Видео
    Идентификатор : 1
    Формат : AVC
    Формат/Информация : Advanced Video Codec
    Профиль формата : High@L4.1
    Параметр CABAC формата : Да
    Параметр ReFrames формата : 9 кадров
    Идентификатор кодека : V_MPEG4/ISO/AVC
    Продолжительность : 1 ч. 28 м.
    Битрейт : 5045 Кбит/сек
    Ширина : 1196 пикселей
    Высота : 720 пикселей
    Соотношение сторон : 5: 3
    Режим частоты кадров : Постоянный
    Частота кадров : 23, 976 (24000/1001) кадра/сек
    Цветовое пространство : YUV
    Субдискретизация насыщенности : 4: 2: 0
    Битовая глубина : 8 бит
    Тип развёртки : Прогрессивная
    Бит/(Пиксели*Кадры) : 0.244
    Размер потока : 3, 12 Гбайт (90%)
    Библиотека кодирования : x264 core 146 r2538 121396c
    Залил: msltel

    Онлайн видео Демоны


    Размер скачиваемого торрента: 4.31 GB (4629925582 Bytes)


    Демоны/Demoni (1985) BDRip 720p by msltel | P, A, L1
    загрузка...
    Рейтинг →
     (голосов: 1, оценка 4/5, голосовать можно 1 раз )

    Другие торренты по теме:

  • Демоны / Demoni (1985) BDRip 1080p by msltel | P, A, L1
  • Демоны / Demoni (1985) HDRip от Portablius | A
  • Демоны 2 / Demoni 2: Lincubo ritorna (1986) BDRip 720p by msltel | P, A, L1
  • Демоны 2 / Demoni 2: Lincubo ritorna (1986) BDRip 1080p by msltel | P, A, L1


    • Комментарии (0):

      Информация

      Информация

        Посетители, находящиеся в группе Гости, не могут оставлять комментарии в данной новости.

        ↓ Меню



        ↓ Опрос

        А Вы добавили сайт в закладки?
        Да
        Не


        Top 10 за месяц (Фильмы)