.
Авторизация | Регистрация
Хочешь лучшие торренты? Добавь свой email!
Добавить




Авиценна (1956) SATRip от New-Team торрент скачать бесплатно

Опубликовал: Админ | Дата: 15-11-2016, 05:00 | Просмотров: 17



Снималось в: СССР
Создали в: Ташкентская киностудия
Категория жанра: драма, биография
Создали в: 1956
Время просмотра: 01: 17: 24
Перевод текста: Не требуется
Субтитры подготовлены: нет
Оригинальная аудиодорожка: русский
Главный режиссер: Камил Ярматов

Актеры

Марат Арипов, Тулкун Таджиев, Аббас Бакиров, Мухаммеджан Касымов, Раззак Хамраев, Обид Джалилов, Рахим Пирмухамедов, Кудрат Ходжаев, Алим Ходжаев...
Полный список актёров
Описание:
Цветной фильм посвящен философу, врачу, ученому Востока и поэту Абу-Али Ибн-Сине, жившему в Бухаре в 10 веке и известному в Европе под именем Авиценны.
Первый раз фильм был восстановлен в 1964 году, затем - в 1979 на киностудии им. М. Горького (в черно-белом варианте).



Источник: DVB
Качество фильма видео: SATRip
Тип видео видео: AVI
Информация о видео: 704x528 (4: 3), 25 fps, XviD ~ 1808 kbps avg, 0.195 bit/pixel
Информация о звуке: 48 kHz, Dolby Digital AC3 2.0, 192 kbps
Раздача от:
MediaInfo

Общее
Полное имя : Avicenna.1956.SATRip_New-team_by_AVP_Studio.avi
Формат : AVI
Формат/Информация : Audio Video Interleave
Размер файла : 1, 09 Гбайт
Продолжительность : 1 ч. 17 м.
Общий поток : 2012 Кбит/сек
Видео
Идентификатор : 0
Формат : MPEG-4 Visual
Профиль формата : Advanced Simple@L5
Параметр BVOP формата : 1
Параметр QPel формата : Нет
Параметр GMC формата : Без точки перехода
Параметр матрицы формата : Выборочная
Идентификатор кодека : XVID
Идентификатор кодека/Подсказка : XviD
Продолжительность : 1 ч. 17 м.
Битрейт : 1808 Кбит/сек
Ширина : 704 пикселя
Высота : 528 пикселей
Соотношение сторон : 4: 3
Частота кадров : 25, 000 кадров/сек
Цветовое пространство : YUV
Субдискретизация насыщенности : 4: 2: 0
Битовая глубина : 8 бит
Тип развёртки : Прогрессивная
Метод сжатия : С потерями
Бит/(Пиксели*Кадры) : 0.195
Размер потока : 1001 Мбайт (90%)
Библиотека кодирования : XviD 1.2.1 (UTC 2008-12-04)
Аудио
Идентификатор : 1
Формат : AC-3
Формат/Информация : Audio Coding 3
Расширение режима : CM (complete main)
Параметр Endianness формата : Big
Идентификатор кодека : 2000
Продолжительность : 1 ч. 17 м.
Вид битрейта : Постоянный
Битрейт : 192 Кбит/сек
Каналы : 2 канала
Расположение каналов : Front: L R
Частота : 48, 0 КГц
Частота кадров : 31, 250 кадров/сек (1536 spf)
Битовая глубина : 16 бит
Метод сжатия : С потерями
Размер потока : 106 Мбайт (10%)
Выравнивание : Соединение по промежуткам
Продолжительность промежутка : 32 мс. (0, 80 видеокадр)

Скриншоты



Залил: AVPStudio

Онлайн видео Авиценна (1956) SATRip от New


Размер скачиваемого торрента: 1.09 GB (1167993930 Bytes)

Авиценна (1956) SATRip от New-Team
загрузка...
Рейтинг →
 (голосов: 1, оценка 5/5, голосовать можно 1 раз )

Другие торренты по теме:

  • Авиценна (1956) SATRip-AVC от New-Team


    • Комментарии (0):

      Информация

      Информация

        Посетители, находящиеся в группе Гости, не могут оставлять комментарии в данной новости.

        ↓ Меню



        ↓ Опрос

        А Вы добавили сайт в закладки?
        Да
        Не


        Top 10 за месяц (Фильмы)