.
Авторизация | Регистрация
» » Демоны / Demoni (1985) HDRip от Portablius | A скачать торрент бесплатно




    Демоны / Demoni (1985) HDRip от Portablius | A скачать торрент бесплатно

    Опубликовал: Админ | Дата: 15-11-2016, 05:00 | Просмотров: 34



    Детально о кино
    Русское название: Демоны
    Русское название в мировом прокате: Demoni
    Создали в: 1985
    Категория жанра: ужасы
    Главный режиссер: Ламберто Бава

    Актеры
    Урбано Барберини, Наташа Хови, Паоло Гоцца, Карл Синни, Фьоре Ардженто, Паола Коццо, Фабиола Толедо, Николетта Элми, Стелио Канделли, Николь Тессьер, Джеретта Джеретта, Бобби Родс, Гуидо Балди, Сэлли Дэй, Элиана Мильо, Жасмин Маймоне, Марчелло Модуньо, Лино Салемме, Энрика Мария Скривано, Алекс Серра, Микеле Соави, Клаудио Спадаро, Сами Хабиб Ахмед, Ламберто Бава, Виктор Бирд, Паоло Корацци, Джованни Фрезза, Клаудио Инсеньо, Серджио Стивалетти, Гоффредо Унгер

    Сюжет фильма
    Молодая девушка Шерил вместе с подругой получает в метро приглашение от странного человека в серебряной маске на премьерный показ нового фильма ужасов о демонах, нашествие которых якобы предсказал Нострадамус. Сеанс должен состояться в одном из только что отремонтированных берлинских кинотеатров под названием Метрополь. В его фойе одна из посетительниц видит манекен в серебряной маске демона и шутки ради примеряет эту маску. Поранившись обо что-то острое внутри маски, девушка с недовольным видом идет в зал. Происходящее на экране странно напоминает то, что в действительности произошло перед сеансом — та же маска и кто-то из героев поранился о неё… Как раз на моменте, когда молодой человек на экране читает отрывок из книги Нострадамуса, повествующий о том, что всякий надевший маску превратится в демона, поранившейся посетительнице становится плохо, и она идёт в женскую комнату лишь для того… чтобы пророчество Нострадамуса сбылось… Очень скоро и остальные зрители кинотеатра убедятся в том, что демоны бывают не только на экране, и Шерил вместе с её друзьями по несчастью предстоит кровавая схватка с полчищами порождений ада…

    Снималось в: Италия
    Время просмотра: 01: 28: 36
    Перевод текста: Авторский (одноголосый, закадровый) Леонид Володарский
    Субтитры: Нет
    Семпл
    Файл
    Кодек для видео: XviD
    Качество фильма: HDRip
    Информация о видео: 672x400 (1.68: 1), 23.976 fps, XviD build 73 ~1037 kbps avg, 0.16 bit/pixel
    Информация о звуке: 48 kHz, MPEG Layer 3, 2 ch, ~128.00 kbps avg
    MediaInfo
    Общее
    Полное имя : Demons.1985.A.HDRip.ot.Portablius.avi
    Формат : AVI
    Формат/Информация : Audio Video Interleave
    Размер файла : 745 Мбайт
    Продолжительность : 1 ч. 28 м.
    Общий поток : 1175 Кбит/сек
    Программа кодирования : VirtualDubMod 1.5.10.3 | www.virtualdub-fr.org || (build 2550/release)
    Библиотека кодирования : VirtualDubMod build 2550/release
    Видео
    Идентификатор : 0
    Формат : MPEG-4 Visual
    Профиль формата : Advanced Simple@L5
    Параметр BVOP формата : 1
    Параметр QPel формата : Нет
    Параметр GMC формата : Без точки перехода
    Параметр матрицы формата : Выборочная
    Идентификатор кодека : XVID
    Идентификатор кодека/Подсказка : XviD
    Продолжительность : 1 ч. 28 м.
    Битрейт : 1038 Кбит/сек
    Ширина : 672 пикселя
    Высота : 400 пикселей
    Соотношение сторон : 5: 3
    Частота кадров : 23, 976 (23976/1000) кадра/сек
    Цветовое пространство : YUV
    Субдискретизация насыщенности : 4: 2: 0
    Битовая глубина : 8 бит
    Тип развёртки : Прогрессивная
    Метод сжатия : С потерями
    Бит/(Пиксели*Кадры) : 0.161
    Размер потока : 658 Мбайт (88%)
    Библиотека кодирования : XviD 73
    Аудио
    Идентификатор : 1
    Формат : MPEG Audio
    Версия формата : Version 1
    Профиль формата : Layer 3
    Идентификатор кодека : 55
    Идентификатор кодека/Подсказка : MP3
    Продолжительность : 1 ч. 28 м.
    Вид битрейта : Постоянный
    Битрейт : 128 Кбит/сек
    Каналы : 2 канала
    Частота : 48, 0 КГц
    Метод сжатия : С потерями
    Размер потока : 81, 1 Мбайт (11%)
    Выравнивание : Соединение по промежуткам
    Продолжительность промежутка : 42 мс. (1, 00 видеокадр)
    Время предзагрузки промежутка : 504 мс.
    Библиотека кодирования : LAME3.99r
    Залил: Evgen Portable

    Онлайн видео Демоны


    Размер скачиваемого торрента: 744.74 MB (780912640 Bytes)


    Демоны/Demoni (1985) HDRip от Portablius | A
    загрузка...
    Рейтинг →
     (голосов: 1, оценка 5/5, голосовать можно 1 раз )

    Другие торренты по теме:

  • Демоны / Demoni (1985) BDRip 1080p by msltel | P, A, L1 скачать торрент бесплатно
  • Демоны / Demoni (1985) BDRip 720p by msltel | P, A, L1 скачать торрент бесплатно
  • Демоны / Dmoni / Demons (1985) BDRip | P скачать торрент бесплатно
  • Охотница на демонов / Demon Hunter Makaryuudo / Makaryudo Demon Hunter (1989) DVDRip AVC | Persona99 торрент скачать бесплатно
  • Ветер демонов / Demon Wind (1990) DVD5 торрент скачать бесплатно
  • Убить демона / Demon Slayer (2004) DVDRip | P2 скачать через торрент бесплатно
  • Демон-дворецкий / Kuroshitsuji: Book of Circus (2014) HDTVRip 720 | Persona99 торрент скачать бесплатно
  • Язык демона / Demon Tongue (2016) WEB-DLRip | L скачать торрент бесплатно


    • Комментарии (0):

      Информация

      Информация

        Посетители, находящиеся в группе Гости, не могут оставлять комментарии в данной новости.

        ↓ Меню



        ↓ Опрос

        А Вы добавили сайт в закладки?
        Да
        Не


        Top 10 за неделю (Фильмы)