.
Авторизация | Регистрация
» » Любой ценой / Hell or High Water (2016) DVD-9 от NovaLan | iTunes скачать торрент бесплатно




    Любой ценой / Hell or High Water (2016) DVD-9 от NovaLan | iTunes скачать торрент бесплатно

    Опубликовал: Админ | Дата: 17-11-2016, 05:00 | Просмотров: 13



    Детально о кино
    Русское название: Любой ценой
    Русское название в мировом прокате: Hell or High Water
    Создали в: 2016
    Категория жанра: Драма, криминал
    Главный режиссер: Дэвид Маккензи

    Актеры
    Джефф Бриджес, Крис Пайн, Бен Фостер, Джил Бирмингем, Дейл Дикки, Уильям Стерчи, Бак Тейлор, Кристин Берг, Кит Мэривезер, Жакмо Буззел
    Описание: Им нужно совсем немного. Каких-то пару тысяч долларов, чтоб выкупить закладную и переписать дом на детей. А значит, окрестным банкам не уйти от дерзких налетов двух отчаянных братьев. Старший - рассудителен, младший - горяч, но так или иначе, а на этом пути им придется столкнуться с рейнджером Гамильтоном! И хотя до пенсии ему пару недель, но если закон был нарушен, значит, нарушителям уже несдобровать. К тому же, в напарниках у Гамильтона - офицер-краснокожий...
    Снималось в: США
    Киностудия: Film 44, Odd Lot Entertainment, Sidney Kimmel Entertainment
    Время просмотра: 01: 42: 09
    Перевод текста: Дублированный
    Файл
    Кодек для видео: MPEG-2
    Качество фильма: DVD-9
    Информация о видео: MPEG2, NTSC 16: 9 (720x480@853x480) VBR, 23, 976 кадра/сек
    Информация о звуке: Русский/Английский DD 5.1 (384 Kbps)

    Меню
    DVDInfo

    Title:
    Size: 5.49 Gb ( 5 759 538 KBytes ) - DVD-9
    Enabled regions: 1, 2, 3, 4, 5, 6, 7, 8
    VTS_01 :
    Play Length: 01: 42: 09
    Video: NTSC 16: 9 (720x480) VBR, Auto PanScan
    Audio:
    Russian (Dolby AC3, 6 ch)
    English (Dolby AC3, 6 ch)
    Menu Video:
    NTSC 4: 3 (720x480) VBR
    Menu English Language Unit :
    Root Menu
    MediaInfo

    Общее
    Полное имя : G: ААА2Любой ценойVIDEO_TSVTS_01_1.VOB
    Формат : MPEG-PS
    Размер файла : 1000 Мбайт
    Продолжительность : 17 м.
    Режим общего битрейта : Переменный
    Общий поток : 7844 Кбит/сек
    Видео
    Идентификатор : 224 (0xE0)
    Формат : MPEG Video
    Версия формата : Version 2
    Профиль формата : Main@Main
    Параметр BVOP формата : Да
    Параметр матрицы формата : По умолчанию
    Параметр GOP формата : M=3, N=12
    Продолжительность : 17 м.
    Вид битрейта : Переменный
    Битрейт : 6920 Кбит/сек
    Максимальный битрейт : 8312 Кбит/сек
    Ширина : 720 пикселей
    Высота : 480 пикселей
    Соотношение сторон : 16: 9
    Частота кадров : 23, 976 кадра/сек
    Стандарт вещания : NTSC
    Цветовое пространство : YUV
    Субдискретизация насыщенности : 4: 2: 0
    Битовая глубина : 8 бит
    Тип развёртки : Прогрессивная
    Порядок развёртки : 2: 3 Pulldown
    Метод сжатия : С потерями
    Бит/(Пиксели*Кадры) : 0.835
    TimeCode_FirstFrame : 00: 00: 00;00
    TimeCode_Source : Group of pictures t_head
    Размер потока : 882 Мбайт (88%)
    Аудио #1
    Идентификатор : 189 (0xBD)-128 (0x80)
    Формат : AC-3
    Формат/Информация : Audio Coding 3
    Расширение режима : CM (complete main)
    Параметр Endianness формата : Big
    Режим смешивания : DVD-Video
    Продолжительность : 17 м.
    Вид битрейта : Постоянный
    Битрейт : 384 Кбит/сек
    Каналы : 6 каналов
    Расположение каналов : Front: L C R, Side: L R, LFE
    Частота : 48, 0 КГц
    Битовая глубина : 16 бит
    Метод сжатия : С потерями
    Размер потока : 49, 0 Мбайт (5%)
    Аудио #2
    Идентификатор : 189 (0xBD)-129 (0x81)
    Формат : AC-3
    Формат/Информация : Audio Coding 3
    Расширение режима : CM (complete main)
    Параметр Endianness формата : Big
    Режим смешивания : DVD-Video
    Продолжительность : 17 м.
    Вид битрейта : Постоянный
    Битрейт : 384 Кбит/сек
    Каналы : 6 каналов
    Расположение каналов : Front: L C R, Side: L R, LFE
    Частота : 48, 0 КГц
    Битовая глубина : 16 бит
    Метод сжатия : С потерями
    Размер потока : 49, 0 Мбайт (5%)
    Меню

    Скриншоты



    Релиз:
    Залил: YArl

    Онлайн видео Любой ценой


    Размер скачиваемого торрента: 5.49 GB (5897766912 Bytes)

    Любой ценой/Hell or High Water (2016) DVD-9 от NovaLan | iTunes
    загрузка...
    Рейтинг →
     (голосов: 1, оценка 3/5, голосовать можно 1 раз )

    Другие торренты по теме:

  • Следствие вели. Любой ценой! (2013) SATRip торрент скачать бесплатно
  • Discovery: Выжить любой ценой / Ultimate Survival / Man vs. Wild (2006-2011) DVDRip, HDTVRip | P1 торрент скачать бесплатно
  • Любой ценой / At Any Price (2012) HDRip | P2 торрент скачать бесплатно
  • Любой ценой / At Any Price (2012) BDRip-AVC от HELLYWOOD | P2 торрент скачать бесплатно
  • Париж любой ценой / Paris tout prix (2013) BDRip 720p | Чистый звук торрент скачать бесплатно
  • Париж любой ценой / Paris tout prix (2013) HDRip | Чистый звук торрент скачать бесплатно
  • Париж любой ценой / Paris tout prix (2013) HDRip от Один 777 | Чистый звук скачать через торрент бесплатно
  • Париж любой ценой / Paris tout prix (2013) HDRip от -=HD-NET=- | КПК | Чистый звук торрент скачать бесплатно


    • Комментарии (0):

      Информация

      Информация

        Посетители, находящиеся в группе Гости, не могут оставлять комментарии в данной новости.

        ↓ Меню



        ↓ Опрос

        А Вы добавили сайт в закладки?
        Да
        Не


        Top 10 за неделю (Фильмы)