.
Авторизация | Регистрация
Хочешь лучшие торренты? Добавь свой email!
Добавить
» » Финансы великого герцога / Finances of the Grand Duke (1924) BDRip | Sub торрент скачать бесплатно




    Финансы великого герцога / Finances of the Grand Duke (1924) BDRip | Sub торрент скачать бесплатно

    Опубликовал: Админ | Дата: 17-11-2016, 05:00 | Просмотров: 5



    Финансы великого герцога / Die Finanzen des Gro?herzogs / Finances of the Grand Duke
    Снималось в: Германия
    Создали в: Universum Film (UFA)
    Создали в: 1924
    Категория жанра: комедия, немое кино
    Время просмотра: 01: 17: 51
    Главный режиссер: Фридрих Вильгельм Мурнау
    Авторы сценария: Теа фон Харбоу, Фриц Вендхаузен, Фрэнк Хеллер

    Актеры
    Джек Скалия, Р. Ли Эрми, Рэй Уайз, Дебора Эдейр, Джон Тоулс-Бей, Эли Пугет, Эмилио Линдер, Тони Исберт, Альваро Лабра, Луис Лоренсо
    Описание: Филипп Колин остроумным способом спасает великого герцога Рамона XXIII как от разорения, так и от революции, сам при этом не оставаясь внакладе...

    Перевод текста: отсутствует |субтитры
    Субтитры: отдельными файлами| русские (от rostislav), английские
    Качество фильма: BDRip | исходникFinances.of.the.Grand.Duke.1924.bdremux.mkv
    Тип видео: AVI
    Информация о видео кодек: XviD
    Информация о звуке кодек: AC3
    Информация о видео: 640x480 (4: 3), 24.000 fps, XviD build 73 ~2 309 kbps avg
    Информация о звуке: 48.0 kHz, AC3 Dolby Digital, 2/0 (L, R) ch, ~192 kbps
    Тип видео субтитров: *SRT
    Дата премьеры (мир): 7 января 1924

    Релиз подготовил: tеko
    Media Info

    Полное имя : Finances.of.the.Grand.Duke.1924.bdrip_1.37.avi
    Формат : AVI
    Формат/Информация : Audio Video Interleave
    Размер файла : 1, 37 Гбайт
    Продолжительность : 1 ч. 17 м.
    Общий поток : 2510 Кбит/сек
    Программа кодирования : VirtualDubMod 1.5.10.3 | (build 2550/release)
    Библиотека кодирования : VirtualDubMod build 2550/release
    Видео
    Идентификатор : 0
    Формат : MPEG-4 Visual
    Профиль формата : Advanced Simple@L5
    Параметр BVOP формата : 1
    Параметр QPel формата : Нет
    Параметр GMC формата : Без точки перехода
    Параметр матрицы формата : Выборочная
    Идентификатор кодека : XVID
    Идентификатор кодека/Подсказка : XviD
    Продолжительность : 1 ч. 17 м.
    Битрейт : 2309 Кбит/сек
    Ширина : 640 пикселей
    Высота : 480 пикселей
    Соотношение сторон : 4: 3
    Частота кадров : 24, 000 кадра/сек
    Цветовое пространство : YUV
    Субдискретизация насыщенности : 4: 2: 0
    Битовая глубина : 8 бит
    Тип развёртки : Прогрессивная
    Метод сжатия : С потерями
    Бит/(Пиксели*Кадры) : 0.313
    Размер потока : 1, 26 Гбайт (92%)
    Библиотека кодирования : XviD 73
    Аудио
    Идентификатор : 1
    Формат : AC-3
    Формат/Информация : Audio Coding 3
    Расширение режима : CM (complete main)
    Параметр Endianness формата : Big
    Идентификатор кодека : 2000
    Продолжительность : 1 ч. 17 м.
    Вид битрейта : Постоянный
    Битрейт : 192 Кбит/сек
    Каналы : 2 канала
    Расположение каналов : Front: L R
    Частота : 48, 0 КГц
    Битовая глубина : 16 бит
    Метод сжатия : С потерями
    Размер потока : 107 Мбайт (8%)
    Выравнивание : Разделение по промежуткам
    Продолжительность промежутка : 42 мс. (1, 00 видеокадр)
    Время предзагрузки промежутка : 500 мс.
    Скриншоты

    Залил: Zha-4k-e

    Онлайн видео Финансы великого герцога


    Размер скачиваемого торрента: 1.37 GB (1465814295 Bytes)

    Финансы великого герцога/Finances of the Grand Duke (1924) BDRip | Sub
    загрузка...
    Рейтинг →
     (голосов: 1, оценка 5/5, голосовать можно 1 раз )

    Другие торренты по теме:

  • Финансы великого герцога / Finances of the Grand Duke (1924) BDRemux 1080p | Sub


    • Комментарии (0):

      Информация

      Информация

        Посетители, находящиеся в группе Гости, не могут оставлять комментарии в данной новости.

        ↓ Меню



        ↓ Опрос

        А Вы добавили сайт в закладки?
        Да
        Не


        Top 10 за месяц (Фильмы)