.
Авторизация | Регистрация
Хочешь лучшие торренты? Добавь свой email!
Добавить




Искатели (1956) SATRip от New-Team торрент скачать бесплатно

Опубликовал: Админ | Дата: 17-11-2016, 05:01 | Просмотров: 52



Снималось в: СССР
Создали в: Ленфильм
Категория жанра: драма, военный, биография
Создали в: 1956
Время просмотра: 01: 37: 13
Перевод текста: Не требуется
Субтитры подготовлены: нет
Оригинальная аудиодорожка: русский
Главный режиссер: Михаил Шапиро

Актеры

Евгений Матвеев, Игорь Горбачёв, Маргарита Юрьева, Майя Блинова, Нина Мамаева, Давид Волосов, Михаил Екатерининский, Ефим Копелян, Владимир Косарев, Игнат Лейрер, Георгий Самойлов, Александр Соколов, Глеб Флоринский, Антоний Ходурский, Виктор Чекмарёв, Герман Хованов...
Полный список актёров
Описание:
По одноименному роману Даниила Гранина.
Во время второй мировой войны в поисках места повреждения телефонной линии погибает друг инженера Лобанова. Наступают мирные дни. Лобанов отказывается от работы в НИИ и устраивается на опытный завод, где по его мнению есть все возможности для создания прибора, определяющего на расстоянии повреждения в электрических кабелях. Молодой ученый зачисляется заведующим лаборатории и пока не предполагает, что основные силы будут направлены на борьбу с бюрократизмом и очковтирательством.



Источник: DVB
Качество фильма видео: SATRip
Тип видео видео: AVI
Информация о видео: 576x432 (4: 3), 25 fps, XviD ~ 933 kbps avg, 0.150 bit/pixel
Информация о звуке: 48 kHz, MP3 2.0, 128 kbps
Раздача от:
MediaInfo

Общее
Полное имя : Iskateli.1956.SATRip-745_New-team_by_AVP_Studio.avi
Формат : AVI
Формат/Информация : Audio Video Interleave
Размер файла : 745 Мбайт
Продолжительность : 1 ч. 37 м.
Общий поток : 1071 Кбит/сек
Программа кодирования : VirtualDubMod 1.5.10.3 | www.virtualdub-fr.org || (build 2550/release)
Библиотека кодирования : VirtualDubMod build 2550/release
Видео
Идентификатор : 0
Формат : MPEG-4 Visual
Профиль формата : Advanced Simple@L5
Параметр BVOP формата : 1
Параметр QPel формата : Нет
Параметр GMC формата : Без точки перехода
Параметр матрицы формата : Выборочная
Идентификатор кодека : XVID
Идентификатор кодека/Подсказка : XviD
Продолжительность : 1 ч. 37 м.
Битрейт : 933 Кбит/сек
Ширина : 576 пикселей
Высота : 432 пикселя
Соотношение сторон : 4: 3
Частота кадров : 25, 000 кадров/сек
Цветовое пространство : YUV
Субдискретизация насыщенности : 4: 2: 0
Битовая глубина : 8 бит
Тип развёртки : Прогрессивная
Метод сжатия : С потерями
Бит/(Пиксели*Кадры) : 0.150
Размер потока : 649 Мбайт (87%)
Библиотека кодирования : XviD 1.2.1 (UTC 2008-12-04)
Аудио
Идентификатор : 1
Формат : MPEG Audio
Версия формата : Version 1
Профиль формата : Layer 3
Идентификатор кодека : 55
Идентификатор кодека/Подсказка : MP3
Продолжительность : 1 ч. 37 м.
Вид битрейта : Постоянный
Битрейт : 128 Кбит/сек
Каналы : 2 канала
Частота : 48, 0 КГц
Метод сжатия : С потерями
Размер потока : 89, 0 Мбайт (12%)
Выравнивание : Соединение по промежуткам
Продолжительность промежутка : 40 мс. (1, 00 видеокадр)
Время предзагрузки промежутка : 504 мс.
Библиотека кодирования : LAME3.99r
Залил: AVPStudio

Онлайн видео Искатели (1956) SATRip от New


Размер скачиваемого торрента: 744.88 MB (781058048 Bytes)


Искатели (1956) SATRip от New-Team
загрузка...
Рейтинг →
 (голосов: 1, оценка 4/5, голосовать можно 1 раз )

Другие торренты по теме:

  • Искатели (Гибель аэровагона Абаковского) / 2015 / РУ / SATRip
  • Искатели («Аврора». Мифология выстрела) / 2015 / РУ / SATRip
  • Искатели (Загадка "Подмосковного Версаля") / 2011 / РУ / SATRip
  • Искатели / 1956 / РУ / SATRip
  • Искатели / 1956 / РУ / SATRip (AVC)


    • Комментарии (0):

      Информация

      Информация

        Посетители, находящиеся в группе Гости, не могут оставлять комментарии в данной новости.

        ↓ Меню



        ↓ Опрос

        А Вы добавили сайт в закладки?
        Да
        Не


        Top 10 за месяц (Фильмы)