.
Авторизация | Регистрация
Хочешь лучшие торренты? Добавь свой email!
Добавить




Варвары (1953) DVDRip от New-Team торрент скачать бесплатно

Опубликовал: Админ | Дата: 17-11-2016, 05:01 | Просмотров: 42



Снималось в: СССР
Создали в: К/ст им.Горького
Категория жанра: драма
Создали в: 1953
Время просмотра: 02: 49: 08
Перевод текста: Не требуется
Субтитры подготовлены: нет
Оригинальная аудиодорожка: русский
Главный режиссер: Леонид Луков, Константин Зубов

Актеры

Евдокия Турчанинова, Ирина Ликсо, Евгений Велихов, Елена Гоголева, Николай Шамин, Павел Оленев, Павла Богатыренко, Владимир Головин, Валентина Орлова, Александр Коротков, Аркадий Смирнов, Пётр Старковский, Валентина Тёмкина, Владимир Савельев (II), Владимир Вилль, Николай Сивов, Геннадий Сергеев, Николай Анненков, Ксения Тарасова, Константин Зубов, Дмитрий Павлов, Елена Кузнецова...
Полный список актёров
Описание:
Фильм-спектакль по одноименной пьесе М.Горького.
Спектакль Малого театра СССР. Режиссер спектакля — Константин Зубов.



Источник: DVD9 R5
Качество фильма видео: DVDRip
Тип видео видео: AVI
Информация о видео: 688x512 (4: 3), 25 fps, XviD ~ 1643 kbps avg, 0.187 bit/pixel
Информация о звуке: 48 kHz, Dolby Digital AC3 2.0, 192 kbps
Раздача от:
MediaInfo

Общее
Полное имя : Varvary.1953.DVDRip_New-team_by_AVP_Studio.avi
Формат : AVI
Формат/Информация : Audio Video Interleave
Профиль формата : OpenDML
Размер файла : 2, 18 Гбайт
Продолжительность : 2 ч. 49 м.
Общий поток : 1847 Кбит/сек
Программа кодирования : VirtualDubMod 1.5.10.3 | www.virtualdub-fr.org || (build 2550/release)
Библиотека кодирования : VirtualDubMod build 2550/release
Видео
Идентификатор : 0
Формат : MPEG-4 Visual
Профиль формата : Advanced Simple@L5
Параметр BVOP формата : 1
Параметр QPel формата : Нет
Параметр GMC формата : Без точки перехода
Параметр матрицы формата : Выборочная
Идентификатор кодека : XVID
Идентификатор кодека/Подсказка : XviD
Продолжительность : 2 ч. 49 м.
Битрейт : 1643 Кбит/сек
Ширина : 688 пикселей
Высота : 512 пикселей
Соотношение сторон : 4: 3
Частота кадров : 25, 000 кадров/сек
Цветовое пространство : YUV
Субдискретизация насыщенности : 4: 2: 0
Битовая глубина : 8 бит
Тип развёртки : Прогрессивная
Метод сжатия : С потерями
Бит/(Пиксели*Кадры) : 0.187
Размер потока : 1, 94 Гбайт (89%)
Библиотека кодирования : XviD 1.2.1 (UTC 2008-12-04)
Аудио
Идентификатор : 1
Формат : AC-3
Формат/Информация : Audio Coding 3
Расширение режима : CM (complete main)
Параметр Endianness формата : Big
Идентификатор кодека : 2000
Продолжительность : 2 ч. 49 м.
Вид битрейта : Постоянный
Битрейт : 192 Кбит/сек
Каналы : 2 канала
Расположение каналов : Front: L R
Частота : 48, 0 КГц
Частота кадров : 31, 250 кадров/сек (1536 spf)
Метод сжатия : С потерями
Размер потока : 232 Мбайт (10%)
Выравнивание : Разделение по промежуткам
Продолжительность промежутка : 40 мс. (1, 00 видеокадр)
Время предзагрузки промежутка : 500 мс

Скриншоты



Залил: AVPStudio

Онлайн видео Варвары (1953) DVDRip от New


Размер скачиваемого торрента: 2.18 GB (2342950912 Bytes)

Варвары (1953) DVDRip от New-Team
загрузка...
Рейтинг →
 (голосов: 1, оценка 3/5, голосовать можно 1 раз )

Другие торренты по теме:

  • Варвары (1953) DVDRip-AVC от New-Team


    • Комментарии (0):

      Информация

      Информация

        Посетители, находящиеся в группе Гости, не могут оставлять комментарии в данной новости.

        ↓ Меню



        ↓ Опрос

        А Вы добавили сайт в закладки?
        Да
        Не


        Top 10 за месяц (Фильмы)