.
Авторизация | Регистрация
Хочешь лучшие торренты? Добавь свой email!
Добавить
» » Стартрек: Бесконечность / Star Trek Beyond (2016) DVD5 торрент скачать бесплатно




    Стартрек: Бесконечность / Star Trek Beyond (2016) DVD5 торрент скачать бесплатно

    Опубликовал: Админ | Дата: 18-11-2016, 05:00 | Просмотров: 7


    Fifty year. One legacy

    Создали в: 2016
    Создали в: США/Paramount Pictures, Skydance Productions, Alibaba Pictures Group, Huahua Film Media Culture, Bad Robot
    Категория жанра: Фантастика, боевик, триллер, приключения
    Главный режиссер: Джастин Лин
    Продюсеры: Джей Джей Абрамс, Брайан Берк, Джастин Лин
    Актеры: Крис Пайн, Закари Куинто, Саймон Пегг, Карл Урбан, Зои Салдана, Джон Чо, Антон Ельчин, Идрис Эльба, София Бутелла, Джо Таслим

    Описание фильма

    Бесстрашная команда крейсера Звездного Флота Энтерпрайз исследует неизведанные глубины космоса. Во время этого полного опасностей путешествия герои сталкиваются с таинственной силой, ставящей под угрозу не только их миссию и стабильность Федерации, но и весь миропорядок.
    Перевод текста: Дублированный
    Субтитры: Английские, русские
    Дата мировой премьеры: 20 июля 2016
    Дата российской премьеры: 21 июля 2016, Централ Партнершип
    Время просмотра: 02: 02: 15
    Качество фильма видео: DVD5
    Информация о видео: MPEG-2, 720x480@853x480 (NTSC 16: 9), ~4200 Кбит/сек
    Информация о звуке 1: AC3 5.1, 448 Кбит/сек Английский - оригинал
    Информация о звуке 2: AC3 5.1, 448 Кбит/сек Русский - дублированный
    DVDInfo:
    Title: Star Trek Beyond (2016) DVD5 NTSC
    Size: 4.38 Gb ( 4 588 680, 00 KBytes ) - DVD-5
    Enabled regions: 1, 2, 3, 4, 5, 6, 7, 8
    VTS_01 :
    Play Length: 00: 00: 00+00: 00: 00
    Video: NTSC 16: 9 (720x480) VBR, Auto Letterboxed
    VTS_02 :
    Play Length: 02: 02: 15+00: 00: 00+00: 00: 02+00: 00: 02
    Video: NTSC 16: 9 (720x480) VBR, Auto Letterboxed
    Audio:
    English (Dolby AC3, 6 ch)
    Russian (Dolby AC3, 6 ch)
    Subtitles:
    English
    Russian
    Russian
    * Menus Information *
    VIDEO_TS Menu
    Video:
    NTSC 16: 9 (720x480) VBR
    Auto PanScan
    English Language Unit :
    Title Menu
    VTS_01 Menu
    Video:
    NTSC 16: 9 (720x480) VBR
    Auto PanScan
    Audio:
    Not specified (Dolby AC3, 2 ch)
    English Language Unit :
    Root Menu
    Subpicture Menu
    Audio Menu
    Angle menu
    Chapter (PTT) Menu
    VTS_02 Menu
    Video:
    NTSC 4: 3 (720x480) VBR
    Auto PanScan, Auto Letterboxed
    English Language Unit :
    Root Menu
    Subpicture Menu
    Audio Menu
    Chapter (PTT) Menu
    MediaInfo:
    Общее
    Полное имя : G: ВидеоStar Trek Beyond (2016) DVD5 NTSCVIDEO_TSVTS_02_3.VOB
    Формат : MPEG-PS
    Размер файла : 1024 Мбайт
    Продолжительность : 27 м.
    Режим общего битрейта : Переменный
    Общий поток : 5201 Кбит/сек
    Видео
    Идентификатор : 224 (0xE0)
    Формат : MPEG Video
    Версия формата : Version 2
    Профиль формата : Main@Main
    Параметр BVOP формата : Да
    Параметр матрицы формата : Выборочная
    Параметр GOP формата : M=3, N=12
    Продолжительность : 27 м.
    Вид битрейта : Переменный
    Битрейт : 4201 Кбит/сек
    Максимальный битрейт : 7319 Кбит/сек
    Ширина : 720 пикселей
    Высота : 480 пикселей
    Соотношение сторон : 16: 9
    Частота кадров : 23, 976 (24000/1001) кадра/сек
    Цветовое пространство : YUV
    Субдискретизация насыщенности : 4: 2: 0
    Битовая глубина : 8 бит
    Тип развёртки : Прогрессивная
    Порядок развёртки : 2: 3 Pulldown
    Метод сжатия : С потерями
    Бит/(Пиксели*Кадры) : 0.507
    Временной код первого кадра : 00: 56: 31: 07
    Оригинал временного кода : Group of pictures t_head
    GOP, открыто/закрыто : Открыто
    Размер потока : 827 Мбайт (81%)
    Аудио #1
    Идентификатор : 189 (0xBD)-128 (0x80)
    Формат : AC-3
    Формат/Информация : Audio Coding 3
    Расширение режима : CM (complete main)
    Параметр Endianness формата : Big
    Режим смешивания : DVD-Video
    Продолжительность : 27 м.
    Вид битрейта : Постоянный
    Битрейт : 448 Кбит/сек
    Каналы : 6 каналов
    Расположение каналов : Front: L C R, Side: L R, LFE
    Частота : 48, 0 КГц
    Частота кадров : 31, 250 кадров/сек (1536 spf)
    Метод сжатия : С потерями
    Задержка видео : -355 мс.
    Размер потока : 88, 2 Мбайт (9%)
    Аудио #2
    Идентификатор : 189 (0xBD)-129 (0x81)
    Формат : AC-3
    Формат/Информация : Audio Coding 3
    Расширение режима : CM (complete main)
    Параметр Endianness формата : Big
    Режим смешивания : DVD-Video
    Продолжительность : 27 м.
    Вид битрейта : Постоянный
    Битрейт : 448 Кбит/сек
    Каналы : 6 каналов
    Расположение каналов : Front: L C R, Side: L R, LFE
    Частота : 48, 0 КГц
    Частота кадров : 31, 250 кадров/сек (1536 spf)
    Метод сжатия : С потерями
    Задержка видео : -355 мс.
    Размер потока : 88, 2 Мбайт (9%)
    Текст #1
    Идентификатор : 189 (0xBD)-32 (0x20)
    Формат : RLE
    Формат/Информация : Run-length encoding
    Режим смешивания : DVD-Video
    Продолжительность : 27 м.
    Задержка видео : 1 с. 885 мс.
    Текст #2
    Идентификатор : 189 (0xBD)-33 (0x21)
    Формат : RLE
    Формат/Информация : Run-length encoding
    Режим смешивания : DVD-Video
    Продолжительность : 27 м.
    Задержка видео : 1 с. 718 мс.
    Меню
    Продолжительность : 27 м.
    Доп. информация:
    Исходник: Стартрек: Бесконечность/Star Trek Beyond (2016) DVD9 | Custom
    Удалены: доп материалы, описательная звуковая дорожка (в меню кнопки затёрты).
    Команды диска переписаны заново, оставлено два VTS.
    Видео сжато на 26, 6%
    Меню: статичное, недействующие кнопки затерты и закрыты.
    Обработка и сжатие: DVD ReMake Pro + DVD Rebuilder + CCE SP2 7 проходов + Работа с меню (Adobe PhotoShop и MuxMan).
    Скриншоты меню:

    Скриншоты:

    Залил: Саша 1992

    Онлайн видео Стартрек: Бесконечность


    Размер скачиваемого торрента: 4.38 GB (4698808320 Bytes)

    Стартрек: Бесконечность/Star Trek Beyond (2016) DVD5
    загрузка...
    Рейтинг →
     (голосов: 1, оценка 4/5, голосовать можно 1 раз )

    Другие торренты по теме:

  • Стартрек: Бесконечность (2016)
  • Стартрек: Бесконечность / Star Trek Beyond (2016) TS | D
  • Стартрек: Бесконечность / Star Trek Beyond (2016) WEB-DLRip | Звук c TS
  • Стартрек: Бесконечность / Star Trek Beyond (2016) WEB-DLRip | Line
  • Стартрек: Бесконечность / Star Trek Beyond (2016) WEB-DLRip | Line
  • Стартрек: Бесконечность / Star Trek Beyond (2016) WEB-DLRip от AleksSin | Line
  • Стартрек: Бесконечность / Star Trek Beyond (2016) WEB-DLRip от Scarabey | Line
  • Стартрек: Бесконечность / Star Trek Beyond (2016) WEB-DLRip от AleksSin | Line


    • Комментарии (0):

      Информация

      Информация

        Посетители, находящиеся в группе Гости, не могут оставлять комментарии в данной новости.

        ↓ Меню



        ↓ Опрос

        А Вы добавили сайт в закладки?
        Да
        Не


        Top 10 за месяц (Фильмы)