.
Авторизация | Регистрация
Хочешь лучшие торренты? Добавь свой email!
Добавить
» » Рэмбо: Первая кровь / First Blood (1982) HDRip от Portablius | P торрент скачать бесплатно




    Рэмбо: Первая кровь / First Blood (1982) HDRip от Portablius | P торрент скачать бесплатно

    Опубликовал: Админ | Дата: 18-11-2016, 05:00 | Просмотров: 51



    Детально о кино
    Русское название: Рэмбо: Первая кровь
    Русское название в мировом прокате: First Blood
    Создали в: 1982
    Категория жанра: Боевик, триллер, драма, приключения
    Главный режиссер: Тед Котчефф

    Актеры
    Сильвестр Сталлоне, Ричард Кренна, Брайан Деннехи, Билл МакКинни, Джек Старретт, Майкл Толбот, Крис Малки, Джон МакЛиам, Альф Хамфриз, Дэвид Карузо

    Сюжет фильма
    Ветеран Вьетнамской войны Джон Рэмбо в надежде отыскать своих боевых товарищей путешествует по США. Узнав о скоропостижной кончине своего последнего товарища из элитного военного подразделения зелёных беретов, он приходит в тихий провинциальный городок. Там его встречает задиристый местный шериф Уилл Тисл, который принимает Рэмбо за бродягу и, отвезя его за пределы города, говорит ему, чтобы тот не возвращался, иначе его ждут неприятности. Но, не проехав и полмили, шериф замечает, что Рэмбо идёт в направлении его города. Шериф пытается его остановить, и, в конце концов, арестовывает, наставив на Рэмбо револьвер.
    Далее его привозят в участок, где местные полицейские, ставя себя выше закона, избивают героя войны. Рэмбо совершает побег из полицейского участка, угнав при этом мотоцикл, на котором он едет в лес. Полицейские с собаками преследуют Рэмбо, сгоняя его к обрыву. Окружённому со всех сторон Джону ничего не остаётся, как попытаться спуститься вниз по отвесной скале, однако полицейский Арт Галт на вертолёте замечает его и пытается застрелить из винтовки. Рэмбо не остаётся ничего, кроме как прыгнуть с обрыва на раскидистые ветви секвойи, растущей внизу, надеясь на то, что они смягчат падение, и он остаётся жив. Вертолёт продолжает преследование и стрельбу, игнорируя запрет Тисла, поэтому Рэмбо, прячась за стволом секвойи, кидает камень в стекло кабины. Пилот теряет управление, Галт с винтовкой падает с вертолёта и погибает. Погибший полицейский был давним другом Тисла. Рэмбо выходит к полицейским и пытается объяснить, что случившееся было несчастным случаем, но полицейские открывают стрельбу и ранят его. Рэмбо бежит в лес, и полицейские преследуют его. В лесу Рэмбо ранит пятерых полицейских при помощи ловушек, и, схватив шерифа, предупреждает его, чтобы тот прекратил преследование, иначе Рэмбо даст им войну, в которую сложно поверить. Однако, вернувшись в участок, шериф вызывает на подмогу военных — части Национальной гвардии.
    Тем временем в город приезжает полковник Сэмюэль Траутман (бывший командир Рэмбо) и даёт Тислу совет Если вы решили послать за Рэмбо двести человек, то не забудьте ещё одно — большой запас мешков для тел. Полковник пытается вступить с Рэмбо в переговоры, что позволяет военным вычислить его местоположение. Солдаты выступают в лес и засекают там Рэмбо. Он прячется в заброшенной шахте и в него стреляют из гранатомёта. Несколько часов все считают Джона погибшим. Тем временем Рэмбо находит выход и, преодолевая завалы и спасаясь от своры крыс, выбирается из заваленной шахты на дорогу. По дороге едет военная колонна. Воспользовавшись сложившейся ситуацией, Рэмбо захватывает и угоняет военный грузовик с пулемётами M60 в кузове.
    Ночью, он прорывается в город, ведомый желанием разобраться с шерифом, взрывает бензоколонку (в переводе Гаврилова — бензостанция) и отключает свет во всём городе, попутно расстреливая магазины и взрывая склад боеприпасов. В итоге, тяжело ранив шерифа из пулемёта, но попав в окружение полиции, после переговоров с полковником Траутманом, Джон Рэмбо сдаётся властям.

    Снималось в: США
    Время просмотра: 01: 33: 16
    Перевод текста: Профессиональный (многоголосый, закадровый) CP Digital
    Субтитры: Нет
    Семпл
    Файл
    Кодек для видео: XviD
    Качество фильма: HDRip
    Информация о видео: 720x304 (2.37: 1), 23.976 fps, XviD build 73 ~979 kbps avg, 0.19 bit/pixel
    Информация о звуке: 48 kHz, MPEG Layer 3, 2 ch, ~128.00 kbps avg
    MediaInfo
    Общее
    Полное имя : Rambo.First.Blood.1982.HDRip.ot.Portablius.avi
    Формат : AVI
    Формат/Информация : Audio Video Interleave
    Размер файла : 745 Мбайт
    Продолжительность : 1 ч. 33 м.
    Общий поток : 1117 Кбит/сек
    Программа кодирования : VirtualDubMod 1.5.10.3 | www.virtualdub-fr.org || (build 2550/release)
    Библиотека кодирования : VirtualDubMod build 2550/release
    Видео
    Идентификатор : 0
    Формат : MPEG-4 Visual
    Профиль формата : Advanced Simple@L5
    Параметр BVOP формата : 1
    Параметр QPel формата : Нет
    Параметр GMC формата : Без точки перехода
    Параметр матрицы формата : Выборочная
    Идентификатор кодека : XVID
    Идентификатор кодека/Подсказка : XviD
    Продолжительность : 1 ч. 33 м.
    Битрейт : 980 Кбит/сек
    Ширина : 720 пикселей
    Высота : 304 пикселя
    Соотношение сторон : 2, 35: 1
    Частота кадров : 23, 976 (23976/1000) кадра/сек
    Цветовое пространство : YUV
    Субдискретизация насыщенности : 4: 2: 0
    Битовая глубина : 8 бит
    Тип развёртки : Прогрессивная
    Метод сжатия : С потерями
    Бит/(Пиксели*Кадры) : 0.187
    Размер потока : 654 Мбайт (88%)
    Библиотека кодирования : XviD 73
    Аудио
    Идентификатор : 1
    Формат : MPEG Audio
    Версия формата : Version 1
    Профиль формата : Layer 3
    Идентификатор кодека : 55
    Идентификатор кодека/Подсказка : MP3
    Продолжительность : 1 ч. 33 м.
    Вид битрейта : Постоянный
    Битрейт : 128 Кбит/сек
    Каналы : 2 канала
    Частота : 48, 0 КГц
    Метод сжатия : С потерями
    Размер потока : 85, 4 Мбайт (11%)
    Выравнивание : Соединение по промежуткам
    Продолжительность промежутка : 42 мс. (1, 00 видеокадр)
    Время предзагрузки промежутка : 504 мс.
    Библиотека кодирования : LAME3.99r
    Залил: Evgen Portable

    Онлайн видео Рэмбо: Первая кровь


    Размер скачиваемого торрента: 745.19 MB (781387776 Bytes)


    Рэмбо: Первая кровь/First Blood (1982) HDRip от Portablius | P
    загрузка...
    Рейтинг →
     (голосов: 1, оценка 4/5, голосовать можно 1 раз )

    Другие торренты по теме:

  • Рэмбо: Первая кровь / First Blood (1982) HDRip от Youtracker | P | КПК
  • Рэмбо: Первая кровь 2 / Rambo: First Blood Part II (1985) HDRip от Youtracker | P | КПК
  • Рэмбо: Первая кровь / First Blood (1982) BDRip 1080p от BT-Club скачать через торрент бесплатно
  • Рэмбо: Первая кровь 2 / Rambo: First Blood Part II (1985) BDRip 1080p от BT-Club скачать через торрент бесплатно
  • Рэмбо: Первая кровь / First Blood (1982) BDRip от New-Team скачать через торрент бесплатно
  • Рэмбо: Первая кровь / First Blood (1982) BDRip-AVC от New-Team
  • Рэмбо: Первая кровь 2 / Rambo: First Blood Part II (1985) BDRip-AVC | iPad | P
  • Рэмбо: Первая кровь / First Blood (1982) BDRip-AVC | iPad | P


    • Комментарии (0):

      Информация

      Информация

        Посетители, находящиеся в группе Гости, не могут оставлять комментарии в данной новости.

        ↓ Меню



        ↓ Опрос

        А Вы добавили сайт в закладки?
        Да
        Не


        Top 10 за месяц (Фильмы)