.
Авторизация | Регистрация
» » Особо опасный преступник / Most Wanted (1997) WEB-DLRip от Leon-masl | P, A скачать торрент бесплатно




    Особо опасный преступник / Most Wanted (1997) WEB-DLRip от Leon-masl | P, A скачать торрент бесплатно

    Опубликовал: Админ | Дата: 18-11-2016, 05:00 | Просмотров: 38



    Детально о кино
    Русское название: Особо опасный преступник
    Русское название в мировом прокате: Most Wanted
    Создали в: 1997
    Категория жанра: боевик, триллер
    Главный режиссер: Дэвид Хоган

    Актеры
    Кинен Айвори Уайанс, Роберт Котечки, Рик Крамер, Кенн Уайтакер, Вольфганг Бодисон, Джон Войт, Эдди Велес, Майкл Марич, Саймон Бейкер, Джилл Хеннесси, Донна Черри, Роберт Калп, Эрик Робертс, Пол Сорвино, Джон Дил

    Сюжет фильма

    Джеймс Данн, снайпер морской пехоты, участник войны в Ираке, отказался выстрелить в десятилетнего мальчишку и случайно убил сержанта, заставлявшего его это сделать. Данна приговорили к смертной казни, но из тюрьмы он был выкран и получил предложение работать в секретном правительственном подразделении подполковника Кейси. Вынужденный согласиться, Джеймс получил первое задание: ликвидировать известного промышленника во время открытия госпиталя для ветеранов. Но до выстрела Данна раздался другой выстрел, сразивший первую леди — жену президента, присутствовавшую на церемонии. Очень быстро Данн понял, что его подставили, чтобы выдать за убийцу-одиночку. Преследуемый врагами, он начинает самостоятельное расследование, в котором ему помогает молодая врач, случайно заснявшая на видео настоящего убийцу.

    Снималось в: США, New Line Cinema
    Время просмотра: 01: 38: 59
    Перевод текста: Профессиональный (многоголосый закадровый) , Авторский (одноголосый закадровый) Василий Горчаков
    Файл
    Кодек для видео: XviD
    Качество фильма: WEB-DLRip
    Информация о видео: 720x304. 23.976 fps, 1720 kbps
    Информация о звуке 1 : 48 kHz, AC3 Dolby Digital, 2/0 (L, R) ch, ~192 kbps.....MVO
    Информация о звуке 2 : 48 kHz, AC3 Dolby Digital, 2/0 (L, R) ch, ~192 kbps.....AVO| Василий Горчаков
    MI
    Общее
    Полное имя : Most.Wanted.1997.WEB-DLRip.avi
    Формат : AVI
    Формат/Информация : Audio Video Interleave
    Размер файла : 1, 46 Гбайт
    Продолжительность : 1 ч. 38 м.
    Общий поток : 2118 Кбит/сек
    Программа кодирования : VirtualDubMod 1.5.10.2 (build 2542/release)
    Библиотека кодирования : VirtualDubMod build 2542/release
    Видео
    Идентификатор : 0
    Формат : MPEG-4 Visual
    Профиль формата : Advanced Simple@L5
    Параметр BVOP формата : 1
    Параметр QPel формата : Нет
    Параметр GMC формата : Без точки перехода
    Параметр матрицы формата : Выборочная
    Идентификатор кодека : XVID
    Идентификатор кодека/Подсказка : XviD
    Продолжительность : 1 ч. 38 м.
    Битрейт : 1720 Кбит/сек
    Ширина : 720 пикс.
    Высота : 304 пикс.
    Соотношение сторон : 2, 35: 1
    Частота кадров : 23, 976 кадр/сек
    Цветовое пространство : YUV
    Подвыборка цветности : 4: 2: 0
    Битовая глубина : 8 бит
    Тип развёртки : Прогрессивная
    Метод сжатия : С потерями
    Бит/(Пиксели*Кадры) : 0.328
    Размер потока : 1, 19 Гбайт (81%)
    Библиотека кодирования : XviD 73
    Аудио #1
    Идентификатор : 1
    Формат : AC-3
    Формат/Информация : Audio Coding 3
    Расширение режима : CM (complete main)
    Идентификатор кодека : 2000
    Продолжительность : 1 ч. 38 м.
    Вид битрейта : Постоянный
    Битрейт : 192 Кбит/сек
    Канал(ы) : 2 канала(ов)
    Расположение каналов : Front: L R
    Частота : 48, 0 КГц
    Битовая глубина : 16 бит
    Метод сжатия : С потерями
    Размер потока : 136 Мбайт (9%)
    Выравнивание : Разделение по промежуткам
    Продолжительность промежутка : 42 мс. (1, 00 видеокадр)
    Время предзагрузки промежутка : 500 ms
    Аудио #2
    Идентификатор : 2
    Формат : AC-3
    Формат/Информация : Audio Coding 3
    Расширение режима : CM (complete main)
    Идентификатор кодека : 2000
    Продолжительность : 1 ч. 38 м.
    Вид битрейта : Постоянный
    Битрейт : 192 Кбит/сек
    Канал(ы) : 2 канала(ов)
    Расположение каналов : Front: L R
    Частота : 48, 0 КГц
    Битовая глубина : 16 бит
    Метод сжатия : С потерями
    Размер потока : 136 Мбайт (9%)
    Выравнивание : Разделение по промежуткам
    Продолжительность промежутка : 42 мс. (1, 00 видеокадр)
    Время предзагрузки промежутка : 500 ms
    Скриншоты

    Релиз подготовил: Leon-masl
    Залил: leon-masl

    Онлайн видео Особо опасный преступник


    Размер скачиваемого торрента: 1.46 GB (1572435968 Bytes)

    Особо опасный преступник/Most Wanted (1997) WEB-DLRip от Leon-masl | P, A
    загрузка...
    Рейтинг →
     (голосов: 1, оценка 3/5, голосовать можно 1 раз )

    Другие торренты по теме:

  • Особо опасны / Savages (2012) BDRip от HQ-ViDEO | Unrated Cut торрент скачать бесплатно
  • Особо опасны / Savages (2012) BDRip-AVC от potroks | D | Unrated version торрент скачать бесплатно
  • Особо опасны / Savages (2012) HDRip от Youtracker | КПК торрент скачать бесплатно
  • Особо опасны / Savages (2012) HDRip от Youtracker | Расширенная версия торрент скачать бесплатно
  • Особо опасны / Savages (2012) BDRip от ENGINEER | UNRATED торрент скачать бесплатно
  • Особо опасны / Savages (2012) HDRip от Scarabey | Сербин | Расширенная версия скачать торрент бесплатно
  • Особо опасна (2015) HDRip скачать торрент бесплатно
  • Особо опасна / Barely Lethal (2015) WEB-DLRip | iTunes скачать торрент бесплатно


    • Комментарии (0):

      Информация

      Информация

        Посетители, находящиеся в группе Гости, не могут оставлять комментарии в данной новости.

        ↓ Меню



        ↓ Опрос

        А Вы добавили сайт в закладки?
        Да
        Не


        Top 10 за неделю (Фильмы)