Авторизация | Регистрация
↓ Случайные торренты
Американский бизон / American Buffalo (1996) DVDRip от Brazzass
Magical Flight 3 (2008) 2xDVD5 от Brazzass
Тараканы - Дискография (1992-2013) МР3 от IMA-Sound
VA - Trance Tattoe #48 скачать через торрент бесплатно
VA - Apres Ski Chill Loungers (2014) MP3 скачать через торрент бесплатно
Pentatonix - Thats Christmas to Me (2014) MP3 скачать через торрент бесплатно
Искушение Евы: Свой метод / Temptation of Eve: Her Own Art (2007) DVDRip | L1 скачать через торрент бесплатно
» » Драгоценный подарок (1956) DVDRip от New-Team скачать торрент бесплатно


    Драгоценный подарок (1956) DVDRip от New-Team скачать торрент бесплатно

    Опубликовал: Админ | Дата: 19-11-2016, 05:02 | Просмотров: 35



    Снималось в: СССР
    Создали в: Киностудия им. Горького
    Категория жанра: семейный, комедия
    Создали в: 1956
    Время просмотра: 01: 13: 19
    Перевод текста: Не требуется
    Субтитры подготовлены: нет
    Оригинальная аудиодорожка: русский
    Главный режиссер: Александр Роу

    Актеры

    Владимир Володин, Галина Степанова, Мария Миронова, Вера Орлова, Рина Зелёная, Лилия Лазукова, Александр Лебедев, Лев Фричинский, Михаил Кузнецов, Георгий Милляр, Александр Тимонтаев...
    Полный список актёров
    Описание:
    Накануне своего рождения москвич Карп Трофимович отправился на рыбалку. Бортмеханик Саша Ватрушкин, молодой человек дочери Карпа Трофимовича, привёз живую щуку с Амура к дню рождения с намерением её зажарить для именинника. В Москве, домочадцам приходит в голову нацепить эту щуку рыбаку на крючок...
    Один из вариантов был стереофильм.



    Источник: DVD5 R5
    Качество фильма видео: DVDRip
    Тип видео видео: AVI
    Информация о видео: 640x480 (4: 3), 25 fps, XviD ~ 1283 kbps avg, 0.167 bit/pixel
    Информация о звуке: 48 kHz, MP3 2.0, 128 kbps
    Раздача от:
    MediaInfo

    Общее
    Полное имя : Dragocennyi.podarok.1956.DVDRip-745_New-team_by_AVP_Studio.avi
    Формат : AVI
    Формат/Информация : Audio Video Interleave
    Размер файла : 745 Мбайт
    Продолжительность : 1 ч. 13 м.
    Общий поток : 1421 Кбит/сек
    Программа кодирования : VirtualDubMod 1.5.10.3 | www.virtualdub-fr.org || (build 2550/release)
    Библиотека кодирования : VirtualDubMod build 2550/release
    Видео
    Идентификатор : 0
    Формат : MPEG-4 Visual
    Профиль формата : Advanced Simple@L5
    Параметр BVOP формата : 1
    Параметр QPel формата : Нет
    Параметр GMC формата : Без точки перехода
    Параметр матрицы формата : Выборочная
    Идентификатор кодека : XVID
    Идентификатор кодека/Подсказка : XviD
    Продолжительность : 1 ч. 13 м.
    Битрейт : 1283 Кбит/сек
    Ширина : 640 пикселей
    Высота : 480 пикселей
    Соотношение сторон : 4: 3
    Частота кадров : 25, 000 кадров/сек
    Цветовое пространство : YUV
    Субдискретизация насыщенности : 4: 2: 0
    Битовая глубина : 8 бит
    Тип развёртки : Прогрессивная
    Метод сжатия : С потерями
    Бит/(Пиксели*Кадры) : 0.167
    Размер потока : 673 Мбайт (90%)
    Библиотека кодирования : XviD 1.2.1 (UTC 2008-12-04)
    Аудио
    Идентификатор : 1
    Формат : MPEG Audio
    Версия формата : Version 1
    Профиль формата : Layer 3
    Идентификатор кодека : 55
    Идентификатор кодека/Подсказка : MP3
    Продолжительность : 1 ч. 13 м.
    Вид битрейта : Постоянный
    Битрейт : 128 Кбит/сек
    Каналы : 2 канала
    Частота : 48, 0 КГц
    Метод сжатия : С потерями
    Размер потока : 67, 1 Мбайт (9%)
    Выравнивание : Соединение по промежуткам
    Продолжительность промежутка : 40 мс. (1, 00 видеокадр)
    Время предзагрузки промежутка : 504 мс.
    Библиотека кодирования : LAME3.99r
    Залил: AVPStudio

    Онлайн видео Драгоценный подарок (1956) DVDRip от New


    Размер скачиваемого торрента: 744.88 MB (781060096 Bytes)


    Драгоценный подарок (1956) DVDRip от New-Team
    загрузка...
    Рейтинг →
     (голосов: 1, оценка 3/5, голосовать можно 1 раз )

    Другие торренты по теме:

  • Драгоценный подарок / 1956 / РУ / DVDRip скачать торрент бесплатно
  • Оригинальное название:Драгоценный подарок Год выпуска:1956 Жанр:Комедия Выпущено:СССР, Студия им. М. Горького Режиссер:Александр Роу В ролях:Владимир Володин,Мария Миронова ст.,Александр Лебедев,Вера Орлова,Николай Горлов,Александр Тимонтаев,Галина Степанова,Лев Фричинский,Иван Рыжов,Татул Дилакян,Аркадий Цинман,Александр Жуков,Михаил Щербаков,Эммануил Геллер,Рина Зелёная,Михаил Кузнецов,Георгий Милляр О фильме:Накануне своего рождения москвич Карп Трофимович отправился на рыбалку. Желающие ему


    • Комментарии (0):

      Информация

      Информация

        Посетители, находящиеся в группе Гости, не могут оставлять комментарии в данной новости.

        ↓ Меню



        Top 10 за неделю (Фильмы)


        ↓ Последние комменты

        Новость: Надежда Михайловских - Ошалелая судьба торрент скачать бесплатно
        Автор: Анна Васильевна
        Эта Надежда Михайловских поёт не свои песни!!! Это не певица! Она просто тупо перепевает в этом сборнике песни шансонных певиц Кати Огонёк, Маргариты Орской, Вороваек и др. Зачем делает альбом из чужих песен?? Пела бы дома или в караоке. Ещё и ужасно их перепевает!! А то мы тут думаем, что это новые песни и новые альбомы!!Ставлю ей 1
        Новость: Надежда Михайловских - Девичник торрент скачать бесплатно
        Автор: Анна Васильевна
        Эта Надежда Михайловских поёт не свои песни!!! Это не певица! Она просто тупо перепевает в этом сборнике песни шансонных певиц Кати Огонёк, Маргариты Орской, Вороваек и др. Зачем делает альбом из чужих песен?? Пела бы дома или в караоке. Ещё и ужасно их перепевает!! А то мы тут думаем, что это новые песни и новые альбомы!!Ставлю ей 1
        Новость: Черепашки-ниндзя 2 / Teenage Mutant Ninja Turtles: Out of the Shadows (2016) BDRip 720p от HELLYWOOD | Лицензия скачать торрент бесплатно
        Автор: Benitoches
        Hello everyone! I've been observing this forum for the long time. Here and now is time to register as new user. Every single adventure has its beginning - and Here is mine :) Hope we can help each other sharing knowledge, time and humour :)
        Новость: Финансовый монстр / Money Monster (2016) BDRip | Лицензия скачать торрент бесплатно
        Автор: Stephancync
        Класс фильм Бриджет Джонс 3 смотрите пиратскую версию по ссылке goo.by/wMe6N3
        Новость: Tor Browser Bundle 2.3.25-10 (2013) РС торрент скачать бесплатно
        Автор: fregat
        Добрый день, а что с ним не так?
        Новость: Tor Browser Bundle 2.3.25-10 (2013) РС торрент скачать бесплатно
        Автор: kornet366
        Админ добрый день АдминПожалуйста обновите файл ( Tor Browser Bundle 3.5 RC 1 (2013) PC торрент скачать бесплатно) он мне нужен другие нет.kornet366
        Новость: Голодные игры / The Hunger Games (2012) скачать торрент бесплатно
        Автор: fregat
        Варкрафт, подойдет.
        Новость: Голодные игры / The Hunger Games (2012) скачать торрент бесплатно
        Автор: AliceEl
        Здравствуйте форумчане! Вопрос немного не в тему )) Хотелось бы посмотреть вечерком киношку хорошую. Порекомендуйте какое-нибудь кино глянуть.
        Новость: Дэдпул / DeadPool (2016) качество CAMRip PROPER скачать торрент бесплатно
        Автор: DouglasNelp
        Фильмец то вообще класный и спасибо нашим Российским пиратам, что уже украли в HD качестве и выложили у себя на сайте, вот тут есть ссылка tr.im/tSyRl .
        Новость: Дэдпул / DeadPool (2016) качество CAMRip PROPER скачать торрент бесплатно
        Автор: AbrahamNex
        Фильмец то вообще класс и спасибо нашим Российским пиратам, что уже украли в HD качестве и выложили у себя на сайте, вот тут есть ссылка tr.im/tSyRl .


        ↓ Опрос

        А Вы добавили сайт в закладки?
        Да
        Не