.
Авторизация | Регистрация
» » Пит и его дракон / Petes Dragon (2016) BDRip 1080p от ExKinoRay | Лицензия скачать торрент бесплатно




    Пит и его дракон / Petes Dragon (2016) BDRip 1080p от ExKinoRay | Лицензия скачать торрент бесплатно

    Опубликовал: Админ | Дата: 20-11-2016, 05:01 | Просмотров: 48



    Детально о кино
    Русское название: Пит и его дракон
    Русское название в мировом прокате: Pete;s Dragon
    Создали в: 2016
    Категория жанра: Фэнтези, приключения, семейный
    Главный режиссер: Дэвид Лоури

    Актеры
    Брайс Даллас Ховард, Роберт Редфорд, Оакс Фигли, Уна Лоуренс, Уэс Бентли, Карл Урбан, Исайя Уитлок мл., Маркус Хендерсон, Аарон Джексон, Филип Грив
    О фильме:
    В течение многих лет Мистер Мичем забавлял местных детишек сказочными историями о свирепом драконе, обитающим на севере, глубоко в лесах. Для его дочери Грейс все эти истории казались ничем иным как выдумкой, ровно до тех пор, пока она не встретила в лесу маленького мальчика по имени Пит. Пит уже долгое время живет в диком лесу, у него нет ни дома, ни семьи, зато есть замечательный друг — огромный зеленый дракон Эллиот. Грейс решает разгадать историю юного Пита, узнать всю правду о его семье и загадочном драконе, о котором ходит так много слухов и легенд.

    Снималось в: США
    Киностудия: Walt Disney Productions
    Время просмотра: 01: 42: 45
    Перевод текста: Дублированный | Лицензия
    Файл
    Кодек для видео: MPEG-4
    Качество фильма: BDRip 1080p
    Информация о видео: 1920x800, 12.2 Mbit/s, 23.976 fps
    Информация о звуке:
    Информация о звуке #01: 48 kHz, AC3, 5.1, 640 Kbps | Дублированный |
    Информация о звуке #02: 48 kHz, AC3, 5.1, 640 kbps | Оригинал |
    Субтитры: Английские
    MI
    General
    Unique ID : 204359756604587507971834961274798189602 (0x99BE41E95F9A567F912CFB4563B9AC22)
    Complete name : G: VideoPete;s.Dragon.2016.BDRip.1080p.ExKinoRay.mkv
    Format : Matroska
    Format version : Version 4/Version 2
    File size : 9.67 GiB
    Duration : 1 h 42 min
    Overall bit rate : 13.5 Mb/s
    Movie name : Pete;s.Dragon.2016 ***селезень***
    Encoded date : UTC 2016-11-19 23: 42: 25
    Writing application : mkvmerge v8.3.0 (;Over the Horizon;) 64bit
    Writing library : libebml v1.3.1 + libmatroska v1.4.2
    Video
    ID : 1
    Format : AVC
    Format/Info : Advanced Video Codec
    Format profile : High@L4.1
    Format settings, CABAC : Yes
    Format settings, ReFrames : 5 frames
    Codec ID : V_MPEG4/ISO/AVC
    Duration : 1 h 42 min
    Bit rate : 12.2 Mb/s
    Width : 1 920 pixels
    Height : 800 pixels
    Display aspect ratio : 2.40: 1
    Frame rate mode : Constant
    Frame rate : 23.976 (24000/1001) FPS
    Color space : YUV
    Chroma subsampling : 4: 2: 0
    Bit depth : 8 bits
    Scan type : Progressive
    Bits/(Pixel*Frame) : 0.331
    Stream size : 8.75 GiB (90%)
    Title : Pete;s.Dragon.2016 ***селезень***
    Writing library : x264 core 148 r2638 7599210
    Encoding settings : cabac=1/ref=5/deblock=1: -3: -3/analyse=0x3: 0x133/me=umh/subme=11/psy=1/psy_rd=1.05: 0.00/mixed_ref=1/me_range=32/chroma_me=1/trellis=2/8x8dct=1/cqm=0/deadzone=21, 11/fast_pskip=0/chroma_qp_offset=-2/threads=12/lookahead_threads=3/sliced_threads=0/nr=0/decimate=0/interlaced=0/bluray_compat=0/constrained_intra=0/bframes=12/b_pyramid=2/b_adapt=2/b_bias=0/direct=3/weightb=1/open_gop=0/weightp=2/keyint=240/keyint_min=23/scenecut=40/intra_refresh=0/rc_lookahead=80/rc=crf/mbtree=0/crf=15.4/qcomp=0.64/qpmin=0/qpmax=69/qpstep=4/vbv_maxrate=62500/vbv_bufsize=78125/crf_max=0.0/nal_hrd=none/filler=0/ip_ratio=1.30/pb_ratio=1.20/aq=3: 0.75
    Language : English
    Default : Yes
    Forced : No
    Audio #1
    ID : 2
    Format : AC-3
    Format/Info : Audio Coding 3
    Mode extension : CM (complete main)
    Format settings, Endianness : Big
    Codec ID : A_AC3
    Duration : 1 h 42 min
    Bit rate mode : Constant
    Bit rate : 640 kb/s
    Channel(s) : 6 channels
    Channel positions : Front: L C R, Side: L R, LFE
    Sampling rate : 48.0 kHz
    Frame rate : 31.250 FPS (1536 spf)
    Bit depth : 16 bits
    Compression mode : Lossy
    Stream size : 470 MiB (5%)
    Title : Dub
    Language : Russian
    Default : Yes
    Forced : No
    Audio #2
    ID : 3
    Format : AC-3
    Format/Info : Audio Coding 3
    Mode extension : CM (complete main)
    Format settings, Endianness : Big
    Codec ID : A_AC3
    Duration : 1 h 42 min
    Bit rate mode : Constant
    Bit rate : 640 kb/s
    Channel(s) : 6 channels
    Channel positions : Front: L C R, Side: L R, LFE
    Sampling rate : 48.0 kHz
    Frame rate : 31.250 FPS (1536 spf)
    Bit depth : 16 bits
    Compression mode : Lossy
    Stream size : 470 MiB (5%)
    Title : Full
    Language : English
    Default : No
    Forced : No
    Text #1
    ID : 4
    Format : UTF-8
    Codec ID : S_TEXT/UTF8
    Codec ID/Info : UTF-8 Plain Text
    Duration : 1 h 39 min
    Bit rate : 38 b/s
    Count of elements : 1030
    Stream size : 27.6 KiB (0%)
    Title : Full
    Language : English
    Default : No
    Forced : No
    Text #2
    ID : 5
    Format : UTF-8
    Codec ID : S_TEXT/UTF8
    Codec ID/Info : UTF-8 Plain Text
    Duration : 1 h 41 min
    Bit rate : 42 b/s
    Count of elements : 1231
    Stream size : 31.8 KiB (0%)
    Title : SDH
    Language : English
    Default : No
    Forced : No
    Menu
    00: 00: 00.000 : en: Family Vacation
    00: 06: 03.989 : en: The Tale of Dragons
    00: 09: 46.669 : en: Playtime with Elliot
    00: 15: 20.128 : en: Forest Ranger Grace
    00: 21: 28.496 : en: A New Friend
    00: 30: 23.447 : en: Hospital Escape
    00: 36: 57.966 : en: Finding Elliot
    00: 44: 03.057 : en: The Meacham Family
    00: 52: 28.062 : en: Replaced
    00: 56: 42.566 : en: The Truth
    01: 03: 13.832 : en: Capture
    01: 10: 07.078 : en: Escape Plan
    01: 17: 17.508 : en: Standoff at the Bridge
    01: 26: 46.034 : en: Together Again
    01: 32: 26.750 : en: Epilogue
    01: 35: 01.362 : en: Credits


    Релиз подготовил: Автор релиза:

    Онлайн видео Пит и его дракон


    Размер скачиваемого торрента: 9.67 GB (10387727040 Bytes)

    Пит и его дракон/Petes Dragon (2016) BDRip 1080p от ExKinoRay | Лицензия
    загрузка...
    Рейтинг →
     (голосов: 1, оценка 4/5, голосовать можно 1 раз )

    Другие торренты по теме:

  • Пит и его дракон / Petes Dragon (2016) BDRip 720p от ExKinoRay | Лицензия скачать торрент бесплатно
  • Пит и его дракон / Petes Dragon (2016) HDRip от Generalfilm | КПК | Лицензия скачать торрент бесплатно
  • Пит и его дракон / Petes Dragon (2016) BDRip 1080p от New-Team qqss44 | Лицензия скачать торрент бесплатно
  • Пит и его дракон / Petes Dragon (2016) BDRip-AVC от HELLYWOOD | Лицензия скачать торрент бесплатно
  • Пит и его дракон / Petes Dragon (2016) BDRip от GeneralFilm | Лицензия скачать торрент бесплатно
  • Пит и его дракон / Petes Dragon (2016) BDRip от HELLYWOOD | Лицензия скачать торрент бесплатно
  • OST - Пит и его дракон / Petes Dragon (2016) MP3 скачать торрент бесплатно
  • Пит и его дракон / Petes Dragon (2016) BDRip от ExKinoRay | Лицензия скачать торрент бесплатно


    • Комментарии (0):

      Информация

      Информация

        Посетители, находящиеся в группе Гости, не могут оставлять комментарии в данной новости.

        ↓ Меню



        ↓ Опрос

        А Вы добавили сайт в закладки?
        Да
        Не


        Top 10 за неделю (Фильмы)