.
Авторизация | Регистрация
» » Кровь и бетон / Blood and Concrete (1991) HDTVRip-AVC от k.e.n | A, P скачать торрент бесплатно




    Кровь и бетон / Blood and Concrete (1991) HDTVRip-AVC от k.e.n | A, P скачать торрент бесплатно

    Опубликовал: Админ | Дата: 22-11-2016, 05:00 | Просмотров: 22



    Создали в: США, IRS Media
    Категория жанра: Комедия, Криминал
    Время просмотра: 01: 34: 54
    Перевод текста: Профессиональный многоголосый, авторский (одноголосый, закадровый) А.Гаврилов/М.Яроцкий
    Внимание! В переводе М.Яроцкого присутствует ненормативная лексика
    Субтитры: Отсутствуют
    Главный режиссер: Джеффри Рейнер
    Актеры: Билли Зейн, Дженнифер Билз, Дэррен МакГэвин, Джеймс ЛеГрос, Марк Пеллегрино, Николас Уорт, Гарри Ширер, Стив Фридман, Билли Бастиани, Патрик Купо

    Описание фильма

    Мона поет в ночном клубе. Джой Теркс — мелкий воришка и аферист, за которым охотится наркоторговец. Истекая кровью, Джой упал к ногам Моны в ту самую минуту, когда она, не найдя счастья в любви, решила перерезать себе вены.

    Качество фильма видео: HDTVRip-AVC
    Информация о видео: AVC, 1024x576 (16: 9), 25 fps, 2 950 Kbps (0.200 bit/pixel)
    Информация о звуке #1: AC-3, 48.0 KHz, 2 ch, 192 Kbps, CBR (Russian) - многоголосый
    Информация о звуке #2: AC-3, 48.0 KHz, 2 ch, 192 Kbps, CBR (Russian) - А.Гаврилов
    Информация о звуке #3: AC-3, 48.0 KHz, 2 ch, 384 Kbps, CBR (English) - оригинал
    Информация о звуке #4: AC-3, 48.0 KHz, 2 ch, 224 Kbps, CBR (Russian) - М.Яроцкий(по умолчанию)
    Дополнительная информация:
    перевод М.Яроцкого доступен благодаря dikii. Работа со звуком Переводман
    x264 log
    x264 info: profile High, level 4.1
    x264 info: frame I: 1262 Avg QP: 15.79 size: 72791 PSNR Mean Y: 48.53 U: 51.26 V: 51.74 Avg: 49.26 Global: 48.63
    x264 info: frame P: 31833 Avg QP: 18.53 size: 27948 PSNR Mean Y: 46.45 U: 50.15 V: 50.59 Avg: 47.35 Global: 46.50
    x264 info: frame B: 109273 Avg QP: 20.68 size: 10228 PSNR Mean Y: 45.62 U: 49.62 V: 50.14 Avg: 46.55 Global: 45.62
    Mediainfo:
    Формат : Matroska
    Версия формата : Version 2
    Размер файла : 2, 61 Гбайт
    Продолжительность : 1 ч. 34 м.
    Общий поток : 3944 Кбит/сек
    Дата кодирования : UTC 2016-11-21 05: 47: 40
    Программа кодирования : mkvmerge v5.3.0 (;I could have danced;) built on Feb 9 2012 10: 38: 07
    Библиотека кодирования : libebml v1.2.3 + libmatroska v1.3.0
    Attachment : Yes
    Видео
    Идентификатор : 1
    Формат : AVC
    Формат/Информация : Advanced Video Codec
    Профиль формата : High@L4.1
    Параметр CABAC формата : Да
    Параметр ReFrames формата : 12 кадров
    Идентификатор кодека : V_MPEG4/ISO/AVC
    Продолжительность : 1 ч. 34 м.
    Битрейт : 2950 Кбит/сек
    Ширина : 1024 пикселя
    Высота : 576 пикселей
    Соотношение сторон : 16: 9
    Режим частоты кадров : Постоянный
    Частота кадров : 25, 000 кадров/сек
    Цветовое пространство : YUV
    Субдискретизация насыщенности : 4: 2: 0
    Битовая глубина : 8 бит
    Тип развёртки : Прогрессивная
    Бит/(Пиксели*Кадры) : 0.200
    Размер потока : 1, 90 Гбайт (73%)
    Библиотека кодирования : x264 core 146 r2538 121396c
    Настройки программы : cabac=1/ref=12/deblock=1: -3: -3/analyse=0x3: 0x133/me=umh/subme=11/psy=1/psy_rd=1.00: 0.15/mixed_ref=1/me_range=32/chroma_me=1/trellis=2/8x8dct=1/cqm=0/deadzone=21, 11/fast_pskip=0/chroma_qp_offset=-3/threads=12/lookahead_threads=2/sliced_threads=0/nr=0/decimate=0/interlaced=0/bluray_compat=0/constrained_intra=0/bframes=8/b_pyramid=2/b_adapt=2/b_bias=0/direct=3/weightb=1/open_gop=0/weightp=2/keyint=250/keyint_min=25/scenecut=40/intra_refresh=0/rc_lookahead=40/rc=2pass/mbtree=0/bitrate=2950/ratetol=1.0/qcomp=0.60/qpmin=0/qpmax=69/qpstep=4/cplxblur=20.0/qblur=0.5/vbv_maxrate=50000/vbv_bufsize=62500/nal_hrd=none/filler=0/ip_ratio=1.40/pb_ratio=1.30/aq=1: 0.70
    Язык : English
    Default : Да
    Forced : Нет
    Аудио #1
    Идентификатор : 2
    Формат : AC-3
    Формат/Информация : Audio Coding 3
    Профиль формата : Dolby Digital
    Расширение режима : CM (complete main)
    Параметр Endianness формата : Big
    Идентификатор кодека : A_AC3
    Продолжительность : 1 ч. 34 м.
    Вид битрейта : Постоянный
    Битрейт : 192 Кбит/сек
    Каналы : 2 канала
    Расположение каналов : Front: L R
    Частота : 48, 0 КГц
    Битовая глубина : 16 бит
    Метод сжатия : С потерями
    Размер потока : 130 Мбайт (5%)
    Заголовок : Профессиональный многоголосый
    Язык : Russian
    Default : Нет
    Forced : Нет
    Аудио #2
    Идентификатор : 3
    Формат : AC-3
    Формат/Информация : Audio Coding 3
    Профиль формата : Dolby Digital
    Расширение режима : CM (complete main)
    Параметр Endianness формата : Big
    Идентификатор кодека : A_AC3
    Продолжительность : 1 ч. 34 м.
    Вид битрейта : Постоянный
    Битрейт : 192 Кбит/сек
    Каналы : 2 канала
    Расположение каналов : Front: L R
    Частота : 48, 0 КГц
    Битовая глубина : 16 бит
    Метод сжатия : С потерями
    Размер потока : 130 Мбайт (5%)
    Заголовок : Авторский А.Гаврилов
    Язык : Russian
    Default : Нет
    Forced : Нет
    Аудио #3
    Идентификатор : 4
    Формат : AC-3
    Формат/Информация : Audio Coding 3
    Профиль формата : Dolby Digital
    Расширение режима : CM (complete main)
    Параметр Endianness формата : Big
    Идентификатор кодека : A_AC3
    Продолжительность : 1 ч. 34 м.
    Вид битрейта : Постоянный
    Битрейт : 384 Кбит/сек
    Каналы : 2 канала
    Расположение каналов : Front: L R
    Частота : 48, 0 КГц
    Битовая глубина : 16 бит
    Метод сжатия : С потерями
    Размер потока : 261 Мбайт (10%)
    Заголовок : оригинал
    Язык : English
    Default : Нет
    Forced : Нет
    Аудио #4
    Идентификатор : 5
    Формат : AC-3
    Формат/Информация : Audio Coding 3
    Расширение режима : CM (complete main)
    Параметр Endianness формата : Big
    Идентификатор кодека : A_AC3
    Продолжительность : 1 ч. 34 м.
    Вид битрейта : Постоянный
    Битрейт : 224 Кбит/сек
    Каналы : 2 канала
    Расположение каналов : Front: L R
    Частота : 48, 0 КГц
    Битовая глубина : 16 бит
    Метод сжатия : С потерями
    Размер потока : 152 Мбайт (6%)
    Заголовок : Авторский М.Яроцкий (Kyberpunk)
    Язык : Russian
    Default : Да
    Forced : Нет

    Скриншоты:

    Релиз подготовил: K.E.N(NNM-CLUB)

    Онлайн видео Кровь и бетон


    Размер скачиваемого торрента: 2.61 GB (2807386835 Bytes)

    Кровь и бетон/Blood and Concrete (1991) HDTVRip-AVC от k.e.n | A, P
    загрузка...
    Рейтинг →
     (голосов: 1, оценка 4/5, голосовать можно 1 раз )

    Другие торренты по теме:

  • Кровь и бетон / Blood and Concrete (1991) HDTVRip | A, P скачать торрент бесплатно


    • Комментарии (0):

      Информация

      Информация

        Посетители, находящиеся в группе Гости, не могут оставлять комментарии в данной новости.

        ↓ Меню



        ↓ Опрос

        А Вы добавили сайт в закладки?
        Да
        Не


        Top 10 за неделю (Фильмы)