.
Авторизация | Регистрация
Хочешь лучшие торренты? Добавь свой email!
Добавить
» » Двойной просчет / Double Jeopardy (1999) WEBRip 1080p | P, P2, A торрент скачать бесплатно




    Двойной просчет / Double Jeopardy (1999) WEBRip 1080p | P, P2, A торрент скачать бесплатно

    Опубликовал: Админ | Дата: 22-11-2016, 05:00 | Просмотров: 29



    Детально о кино
    Русское название: Двойной просчет
    Русское название в мировом прокате: Double Jeopardy
    Создали в: 1999
    Категория жанра: триллер, криминал, детектив
    Главный режиссер: Брюс Бересфорд

    Актеры
    Эшли Джадд, Томми Ли Джонс, Брюс Гринвуд, Аннабет Гиш, Бенжамин Вейр, Джей Бразо, Джон МакЛарен, Эд Эванко, Брюс Кэмпбелл, Бреннан Эллиотт

    Сюжет фильма

    Молодой женщине пришлось отбывать срок за преступление, к которому она не имела никакого отношения. Более того, выяснилось, что подставил её собственный муж, который на самом деле был жив-здоров и прекрасно себя чувствовал.
    Однако, он забыл принять во внимание, на что способна Либби, когда её вероломно предают. Срок закончился, и она отправляется восстанавливать справедливость. А вслед за Либби устремляется офицер по надзору за выпущенными на свободу заключёнными…

    Снималось в: США, Германия, Канада
    Киностудия: Paramount Pictures, MFP Munich Film Partners GmbH Company I. Produktions KG
    Время просмотра: 01: 45: 12
    Перевод текста: Профессиональный (двухголосый, закадровый) iTunes Russia + Профессиональный (многоголосый, закадровый) + Профессиональный (многоголосый, закадровый) НТВ + Профессиональный (многоголосый, закадровый) CTC + Профессиональный (двухголосый, закадровый) НТВ+ + Профессиональный (двухголосый, закадровый) Премьер + Авторский (одноголосый, закадровый) А.Гаврилов + Авторский (одноголосый, закадровый) С.Визгунов + Авторский (одноголосый, закадровый) Ю.Живов + Авторский (одноголосый, закадровый) М.Латышев + Профессиональный (многоголосый, закадровый) IHTEP + Профессиональный (многоголосый, закадровый) Новий канал
    Файл
    Тип видео: Matroska
    Качество фильма: WEBRip 1080p NTb
    Информация о видео: 1920x800 at 23.976 fps, x264@L4, ~13700 kbps avg
    Aудио#1: Russian: 48 kHz, AC3, 3/2 (L, C, R, l, r) + LFE ch, ~384 kbps avg |Двухголосый закадровый, iTunes Russia|
    Aудио#2: Russian: 48 kHz, AC3, 3/2 (L, C, R, l, r) + LFE ch, ~448 kbps avg |Многоголосый закадровый|
    Aудио#3: Russian: 48 kHz, AC3, 2/0 (L, R) ch, ~192 kbps avg |Многоголосый закадровый, НТВ|
    Aудио#4: Russian: 48 kHz, AC3, 2/0 (L, R) ch, ~192 kbps avg |Многоголосый закадровый, CTC|
    Aудио#5: Russian: 48 kHz, AC3, 2/0 (L, R) ch, ~192 kbps avg |Двухголосый закадровый, НТВ+|
    Aудио#6: Russian: 48 kHz, AC3, 2/0 (L, R) ch, ~192 kbps avg |Двухголосый закадровый, Премьер|
    Aудио#7: Russian: 48 kHz, AC3, 3/2 (L, C, R, l, r) + LFE ch, ~448 kbps avg |Авторский, А.Гаврилов|
    Aудио#8: Russian: 48 kHz, AC3, 2/0 (L, R) ch, ~192 kbps avg |Авторский, С.Визгунов|
    Aудио#9: Russian: 48 kHz, AC3, 2/0 (L, R) ch, ~192 kbps avg |Авторский, Ю.Живов|
    Aудио#10: Russian: 48 kHz, AC3, 2/0 (L, R) ch, ~192 kbps avg |Авторский, М.Латышев|
    Aудио#11: Ukrainian: 48 kHz, AC3, 2/0 (L, R) ch, ~192 kbps avg |Многоголосый закадровый, IHTEP|
    Aудио#12: Ukrainian: 48 kHz, AC3, 2/0 (L, R) ch, ~192 kbps avg |Многоголосый закадровый, Новий канал|
    Aудио#13: English: 48 kHz, AC3, 3/2 (L, C, R, l, r) + LFE ch, ~640 kbps avg
    Субтитры: Russian, English, German, French, Spanish, Portuguese
    ***Сохранены и подписаны оригинальные главы.
    ***Релиз - whalekilla.
    Знаете ли вы, что...
    Фильм связан с пятой поправкой к Конституции США, говорящей о недопустимости двойной или повторной ответственности за одно и то же совершённое преступление (Double_Jeopardy).
    MI
    Общее
    Уникальный идентификатор : 175390502673278141505883915722051127475 (0x83F2FB6B4BD1A6A992E20BBB90A188B3)
    Полное имя : Double.Jeopardy.1999.WEB-DL.(1080p).mkv
    Формат : Matroska
    Версия формата : Version 4/Version 2
    Размер файла : 8, 49 Гбайт
    Продолжительность : 1 ч. 45 м.
    Режим общего битрейта : Переменный
    Общий поток : 11, 5 Мбит/сек
    Название фильма : Double Jeopardy (1999)
    Дата кодирования : UTC 2016-11-21 15: 05: 10
    Программа кодирования : mkvmerge v6.9.1 (;Blue Panther;) 64bit built on Apr 18 2014 18: 23: 38
    Библиотека кодирования : libebml v1.3.0 + libmatroska v1.4.1
    Видео
    Идентификатор : 1
    Формат : AVC
    Формат/Информация : Advanced Video Codec
    Профиль формата : High@L4.0
    Параметр CABAC формата : Да
    Параметр ReFrames формата : 4 кадра
    Идентификатор кодека : V_MPEG4/ISO/AVC
    Продолжительность : 1 ч. 45 м.
    Вид битрейта : Переменный
    Битрейт : 7671 Кбит/сек
    Максимальный битрейт : 15, 0 Мбит/сек
    Ширина : 1920 пикселей
    Высота : 800 пикселей
    Соотношение сторон : 2, 40: 1
    Режим частоты кадров : Постоянный
    Частота кадров : 23, 976 кадра/сек
    Цветовое пространство : YUV
    Субдискретизация насыщенности : 4: 2: 0
    Битовая глубина : 8 бит
    Тип развёртки : Прогрессивная
    Бит/(Пиксели*Кадры) : 0.208
    Размер потока : 5, 64 Гбайт (66%)
    Заголовок : Double Jeopardy (1999)
    Библиотека кодирования : x264 core 148 r2623 d5b2374
    Настройки программы : cabac=1/ref=4/deblock=1: -1: -1/analyse=0x3: 0x133/me=umh/subme=9/psy=1/psy_rd=1.00: 0.15/mixed_ref=1/me_range=24/chroma_me=1/trellis=2/8x8dct=1/cqm=0/deadzone=21, 11/fast_pskip=1/chroma_qp_offset=-3/threads=25/lookahead_threads=4/sliced_threads=0/nr=150/decimate=1/interlaced=0/bluray_compat=0/constrained_intra=0/bframes=8/b_pyramid=2/b_adapt=2/b_bias=0/direct=3/weightb=1/open_gop=0/weightp=2/keyint=120/keyint_min=61/scenecut=0/intra_refresh=0/rc_lookahead=120/rc=crf/mbtree=1/crf=18.0/qcomp=0.60/qpmin=0/qpmax=69/qpstep=4/vbv_maxrate=15000/vbv_bufsize=31250/crf_max=0.0/nal_hrd=vbr/filler=0/ip_ratio=1.40/aq=3: 1.00
    Язык : English
    Default : Да
    Forced : Нет
    Основные цвета : BT.709
    Характеристики трансфера : BT.709
    Коэффициенты матрицы : BT.709
    Аудио #1
    Идентификатор : 2
    Формат : AC-3
    Формат/Информация : Audio Coding 3
    Расширение режима : CM (complete main)
    Параметр Endianness формата : Big
    Идентификатор кодека : A_AC3
    Продолжительность : 1 ч. 45 м.
    Вид битрейта : Постоянный
    Битрейт : 384 Кбит/сек
    Каналы : 6 каналов
    Расположение каналов : Front: L C R, Side: L R, LFE
    Частота : 48, 0 КГц
    Битовая глубина : 16 бит
    Метод сжатия : С потерями
    Размер потока : 289 Мбайт (3%)
    Заголовок : АС3, 6 ch, 384 Kbps, DVO, ;iTunes Russia;
    Язык : Russian
    Default : Да
    Forced : Нет
    Аудио #2
    Идентификатор : 3
    Формат : AC-3
    Формат/Информация : Audio Coding 3
    Расширение режима : CM (complete main)
    Параметр Endianness формата : Big
    Идентификатор кодека : A_AC3
    Продолжительность : 1 ч. 45 м.
    Вид битрейта : Постоянный
    Битрейт : 448 Кбит/сек
    Каналы : 6 каналов
    Расположение каналов : Front: L C R, Side: L R, LFE
    Частота : 48, 0 КГц
    Битовая глубина : 16 бит
    Метод сжатия : С потерями
    Размер потока : 337 Мбайт (4%)
    Заголовок : AC3, 6 ch, 448 Kbps, MVO
    Язык : Russian
    Default : Нет
    Forced : Нет
    Аудио #3
    Идентификатор : 4
    Формат : AC-3
    Формат/Информация : Audio Coding 3
    Расширение режима : CM (complete main)
    Параметр Endianness формата : Big
    Идентификатор кодека : A_AC3
    Продолжительность : 1 ч. 45 м.
    Вид битрейта : Постоянный
    Битрейт : 192 Кбит/сек
    Каналы : 2 канала
    Расположение каналов : Front: L R
    Частота : 48, 0 КГц
    Битовая глубина : 16 бит
    Метод сжатия : С потерями
    Размер потока : 144 Мбайт (2%)
    Заголовок : AC3, 2 ch, 192 Kbps, MVO, ;НТВ;
    Язык : Russian
    Default : Нет
    Forced : Нет
    Аудио #4
    Идентификатор : 5
    Формат : AC-3
    Формат/Информация : Audio Coding 3
    Расширение режима : CM (complete main)
    Параметр Endianness формата : Big
    Идентификатор кодека : A_AC3
    Продолжительность : 1 ч. 45 м.
    Вид битрейта : Постоянный
    Битрейт : 192 Кбит/сек
    Каналы : 2 канала
    Расположение каналов : Front: L R
    Частота : 48, 0 КГц
    Битовая глубина : 16 бит
    Метод сжатия : С потерями
    Размер потока : 144 Мбайт (2%)
    Заголовок : AC3, 2 ch, 192 Kbps, MVO, ;CTC;
    Язык : Russian
    Default : Нет
    Forced : Нет
    Аудио #5
    Идентификатор : 6
    Формат : AC-3
    Формат/Информация : Audio Coding 3
    Расширение режима : CM (complete main)
    Параметр Endianness формата : Big
    Идентификатор кодека : A_AC3
    Продолжительность : 1 ч. 45 м.
    Вид битрейта : Постоянный
    Битрейт : 192 Кбит/сек
    Каналы : 2 канала
    Расположение каналов : Front: L R
    Частота : 48, 0 КГц
    Битовая глубина : 16 бит
    Метод сжатия : С потерями
    Размер потока : 144 Мбайт (2%)
    Заголовок : AC3, 2 ch, 192 Kbps, DVO, ;НТВ+;
    Язык : Russian
    Default : Нет
    Forced : Нет
    Аудио #6
    Идентификатор : 7
    Формат : AC-3
    Формат/Информация : Audio Coding 3
    Расширение режима : CM (complete main)
    Параметр Endianness формата : Big
    Идентификатор кодека : A_AC3
    Продолжительность : 1 ч. 45 м.
    Вид битрейта : Постоянный
    Битрейт : 192 Кбит/сек
    Каналы : 2 канала
    Расположение каналов : Front: L R
    Частота : 48, 0 КГц
    Битовая глубина : 16 бит
    Метод сжатия : С потерями
    Размер потока : 144 Мбайт (2%)
    Заголовок : AC3, 2 ch, 192 Kbps, DVO, ;Премьер;
    Язык : Russian
    Default : Нет
    Forced : Нет
    Аудио #7
    Идентификатор : 8
    Формат : AC-3
    Формат/Информация : Audio Coding 3
    Расширение режима : CM (complete main)
    Параметр Endianness формата : Big
    Идентификатор кодека : A_AC3
    Продолжительность : 1 ч. 45 м.
    Вид битрейта : Постоянный
    Битрейт : 448 Кбит/сек
    Каналы : 6 каналов
    Расположение каналов : Front: L C R, Side: L R, LFE
    Частота : 48, 0 КГц
    Битовая глубина : 16 бит
    Метод сжатия : С потерями
    Размер потока : 337 Мбайт (4%)
    Заголовок : АС3, 6 ch, 448 Kbps, AVO, Андрей Гаврилов
    Язык : Russian
    Default : Нет
    Forced : Нет
    Аудио #8
    Идентификатор : 9
    Формат : AC-3
    Формат/Информация : Audio Coding 3
    Расширение режима : CM (complete main)
    Параметр Endianness формата : Big
    Идентификатор кодека : A_AC3
    Продолжительность : 1 ч. 45 м.
    Вид битрейта : Постоянный
    Битрейт : 192 Кбит/сек
    Каналы : 2 канала
    Расположение каналов : Front: L R
    Частота : 48, 0 КГц
    Битовая глубина : 16 бит
    Метод сжатия : С потерями
    Размер потока : 144 Мбайт (2%)
    Заголовок : АС3, 2 ch, 192 Kbps, AVO, Сергей Визгунов
    Язык : Russian
    Default : Нет
    Forced : Нет
    Аудио #9
    Идентификатор : 10
    Формат : AC-3
    Формат/Информация : Audio Coding 3
    Расширение режима : CM (complete main)
    Параметр Endianness формата : Big
    Идентификатор кодека : A_AC3
    Продолжительность : 1 ч. 45 м.
    Вид битрейта : Постоянный
    Битрейт : 192 Кбит/сек
    Каналы : 2 канала
    Расположение каналов : Front: L R
    Частота : 48, 0 КГц
    Битовая глубина : 16 бит
    Метод сжатия : С потерями
    Размер потока : 144 Мбайт (2%)
    Заголовок : АС3, 2 ch, 192 Kbps, AVO, Юрий Живов
    Язык : Russian
    Default : Нет
    Forced : Нет
    Аудио #10
    Идентификатор : 11
    Формат : AC-3
    Формат/Информация : Audio Coding 3
    Расширение режима : CM (complete main)
    Параметр Endianness формата : Big
    Идентификатор кодека : A_AC3
    Продолжительность : 1 ч. 45 м.
    Вид битрейта : Постоянный
    Битрейт : 192 Кбит/сек
    Каналы : 2 канала
    Расположение каналов : Front: L R
    Частота : 48, 0 КГц
    Битовая глубина : 16 бит
    Метод сжатия : С потерями
    Размер потока : 144 Мбайт (2%)
    Заголовок : АС3, 2 ch, 192 Kbps, AVO, Максим Латышев
    Язык : Russian
    Default : Нет
    Forced : Нет
    Аудио #11
    Идентификатор : 12
    Формат : AC-3
    Формат/Информация : Audio Coding 3
    Расширение режима : CM (complete main)
    Параметр Endianness формата : Big
    Идентификатор кодека : A_AC3
    Продолжительность : 1 ч. 45 м.
    Вид битрейта : Постоянный
    Битрейт : 192 Кбит/сек
    Каналы : 2 канала
    Расположение каналов : Front: L R
    Частота : 48, 0 КГц
    Битовая глубина : 16 бит
    Метод сжатия : С потерями
    Размер потока : 144 Мбайт (2%)
    Заголовок : AC3, 2 ch, 192 Kbps, Українська, ;IHTEP;
    Язык : Ukrainian
    Default : Нет
    Forced : Нет
    Аудио #12
    Идентификатор : 13
    Формат : AC-3
    Формат/Информация : Audio Coding 3
    Расширение режима : CM (complete main)
    Параметр Endianness формата : Big
    Идентификатор кодека : A_AC3
    Продолжительность : 1 ч. 45 м.
    Вид битрейта : Постоянный
    Битрейт : 192 Кбит/сек
    Каналы : 2 канала
    Расположение каналов : Front: L R
    Частота : 48, 0 КГц
    Битовая глубина : 16 бит
    Метод сжатия : С потерями
    Размер потока : 144 Мбайт (2%)
    Заголовок : AC3, 2 ch, 192 Kbps, Українська, ;Новий канал;
    Язык : Ukrainian
    Default : Нет
    Forced : Нет
    Аудио #13
    Идентификатор : 14
    Формат : AC-3
    Формат/Информация : Audio Coding 3
    Расширение режима : CM (complete main)
    Параметр Endianness формата : Big
    Идентификатор кодека : A_AC3
    Продолжительность : 1 ч. 45 м.
    Вид битрейта : Постоянный
    Битрейт : 640 Кбит/сек
    Каналы : 6 каналов
    Расположение каналов : Front: L C R, Side: L R, LFE
    Частота : 48, 0 КГц
    Битовая глубина : 16 бит
    Метод сжатия : С потерями
    Размер потока : 482 Мбайт (6%)
    Заголовок : АС3, 6 ch, 640 Kbps, Original
    Язык : English
    Default : Нет
    Forced : Нет
    Текст #1
    Идентификатор : 15
    Формат : UTF-8
    Идентификатор кодека : S_TEXT/UTF8
    Идентификатор кодека/Информация : UTF-8 Plain Text
    Язык : Russian
    Default : Нет
    Forced : Нет
    Текст #2
    Идентификатор : 16
    Формат : UTF-8
    Идентификатор кодека : S_TEXT/UTF8
    Идентификатор кодека/Информация : UTF-8 Plain Text
    Язык : English
    Default : Нет
    Forced : Нет
    Текст #3
    Идентификатор : 17
    Формат : UTF-8
    Идентификатор кодека : S_TEXT/UTF8
    Идентификатор кодека/Информация : UTF-8 Plain Text
    Язык : German
    Default : Нет
    Forced : Нет
    Текст #4
    Идентификатор : 18
    Формат : UTF-8
    Идентификатор кодека : S_TEXT/UTF8
    Идентификатор кодека/Информация : UTF-8 Plain Text
    Язык : French
    Default : Нет
    Forced : Нет
    Текст #5
    Идентификатор : 19
    Формат : UTF-8
    Идентификатор кодека : S_TEXT/UTF8
    Идентификатор кодека/Информация : UTF-8 Plain Text
    Язык : Spanish
    Default : Нет
    Forced : Нет
    Текст #6
    Идентификатор : 20
    Формат : UTF-8
    Идентификатор кодека : S_TEXT/UTF8
    Идентификатор кодека/Информация : UTF-8 Plain Text
    Язык : Portuguese
    Default : Нет
    Forced : Нет
    Текст #7
    Идентификатор : 21
    Формат : UTF-8
    Идентификатор кодека : S_TEXT/UTF8
    Идентификатор кодека/Информация : UTF-8 Plain Text
    Язык : Swedish
    Default : Нет
    Forced : Нет
    Текст #8
    Идентификатор : 22
    Формат : UTF-8
    Идентификатор кодека : S_TEXT/UTF8
    Идентификатор кодека/Информация : UTF-8 Plain Text
    Язык : Finnish
    Default : Нет
    Forced : Нет
    Текст #9
    Идентификатор : 23
    Формат : UTF-8
    Идентификатор кодека : S_TEXT/UTF8
    Идентификатор кодека/Информация : UTF-8 Plain Text
    Язык : Estonian
    Default : Нет
    Forced : Нет
    Текст #10
    Идентификатор : 24
    Формат : UTF-8
    Идентификатор кодека : S_TEXT/UTF8
    Идентификатор кодека/Информация : UTF-8 Plain Text
    Язык : Hebrew
    Default : Нет
    Forced : Нет
    Меню
    00: 00: 00.000 : en: The Good Life
    00: 06: 32.000 : en: The Morning Star
    00: 13: 26.000 : en: Testimony
    00: 20: 50.000 : en: Using Her Head
    00: 27: 36.000 : en: A Christmas Present
    00: 32: 31.000 : en: Conditional Parole
    00: 40: 25.000 : en: School Records
    00: 46: 15.000 : en: Don;t Go Anywhere.
    00: 52: 39.000 : en: Angela Ryder
    00: 58: 46.000 : en: Art Search
    01: 06: 20.000 : en: Bachelor Auction
    01: 15: 23.000 : en: The Red Umbrella
    01: 21: 17.000 : en: Tourist Trap
    01: 29: 09.000 : en: Number 3
    01: 36: 22.000 : en: Matty
    01: 40: 32.000 : en: End Credits
    Скриншоты



    Онлайн видео Двойной просчет


    Размер скачиваемого торрента: 8.49 GB (9112441788 Bytes)

    Двойной просчет/Double Jeopardy (1999) WEBRip 1080p | P, P2, A
    загрузка...
    Рейтинг →
     (голосов: 1, оценка 3/5, голосовать можно 1 раз )

    Другие торренты по теме:

  • Двойной просчет / Double Jeopardy (1999) HDTVRip
  • Двойной просчет / Double Jeopardy (1999) DVD-9
  • Двойной просчет / Double Jeopardy (1999) WEBRip-AVC от k.e.n NNMClub | D, P, P2, A


    • Комментарии (0):

      Информация

      Информация

        Посетители, находящиеся в группе Гости, не могут оставлять комментарии в данной новости.

        ↓ Меню



        ↓ Опрос

        А Вы добавили сайт в закладки?
        Да
        Не


        Top 10 за месяц (Фильмы)