.
Авторизация | Регистрация
» » Отряд самоубийц / Suicide Squad (2016) WEB-DL 1080p от ExKinoRay | Extended Cut | A скачать торрент бесплатно




    Отряд самоубийц / Suicide Squad (2016) WEB-DL 1080p от ExKinoRay | Extended Cut | A скачать торрент бесплатно

    Опубликовал: Админ | Дата: 22-11-2016, 05:00 | Просмотров: 48



    Детально о кино
    Русское название: Отряд самоубийц
    Русское название в мировом прокате: Suicide Squad
    Создали в: 2016
    Категория жанра: Фантастика, боевик, триллер, комедия, криминал, приключения
    Главный режиссер: Дэвид Эйр

    Актеры
    Марго Робби, Уилл Смит, Джаред Лето, Джай Кортни, Кара Делевинь, Джей Эрнандес, Юэль Киннаман, Виола Дэвис
    О фильме:
    Собрать команду из самых опасных из сидящих за решеткой суперзлодеев, снабдить их самым мощным оружием из государственного арсенала и отправить на задание по уничтожению загадочного, непобедимого существа - такова задача. Офицер американской разведки Аманда Уоллер допускает к этой миссии только одну секретно набранную группу, состоящую из отчаянных злобных антигероев, которым практически нечего терять. Но когда те поймут, что были выбраны не для успешного исполнения задания, а чтобы было на кого свалить провал, который неизбежно случится, решит ли Отряд самоубийц пойти до конца, пытаясь завершить миссию, или каждый будет сам за себя?

    Снималось в: США
    Киностудия: DC Comics, Warner Bros. Pictures
    Время просмотра: 02: 14: 30
    Перевод текста: Авторский одноголосый (закадровый) | А. Матвеев
    Файл
    Кодек для видео: MPEG-4
    Качество фильма: WEB-DL 1080p
    Информация о видео: 1916x796, 4555 Kbit/s, 23.976 fps
    Информация о звуке:
    Информация о звуке #01: 48 kHz, AC3, 5.1, 384 Kbps | А. Матвеев |
    Информация о звуке #02: 48 kHz, AC3, 5.1, 384 kbps | Оригинал |
    Субтитры: Русские (forced, full), английские
    MI
    General
    Unique ID : 224059420961810990221987072982652044395 (0xA890465A4AAB810E8335D011A470446B)
    Complete name : G: VideoSuicide.Squad.Extended.2016.WEB-DL.1080p.ExKinoRay.mkv
    Format : Matroska
    Format version : Version 4/Version 2
    File size : 5.00 GiB
    Duration : 2 h 14 min
    Overall bit rate : 5 326 kb/s
    Movie name : ExKinoRay
    Encoded date : UTC 2016-11-21 20: 11: 30
    Writing application : mkvmerge v8.3.0 (;Over the Horizon;) 64bit
    Writing library : libebml v1.3.1 + libmatroska v1.4.2
    Video
    ID : 1
    Format : AVC
    Format/Info : Advanced Video Codec
    Format profile : High@L4
    Format settings, CABAC : Yes
    Format settings, ReFrames : 5 frames
    Codec ID : V_MPEG4/ISO/AVC
    Duration : 2 h 14 min
    Bit rate : 4 555 kb/s
    Width : 1 916 pixels
    Height : 796 pixels
    Display aspect ratio : 2.40: 1
    Frame rate mode : Constant
    Frame rate : 23.976 (23976/1000) FPS
    Color space : YUV
    Chroma subsampling : 4: 2: 0
    Bit depth : 8 bits
    Scan type : Progressive
    Bits/(Pixel*Frame) : 0.125
    Stream size : 4.28 GiB (86%)
    Language : English
    Default : Yes
    Forced : No
    Color range : Limited
    Color primaries : BT.709
    Transfer characteristics : BT.709
    Matrix coefficients : BT.709
    Audio #1
    ID : 2
    Format : AC-3
    Format/Info : Audio Coding 3
    Mode extension : CM (complete main)
    Format settings, Endianness : Big
    Codec ID : A_AC3
    Duration : 2 h 14 min
    Bit rate mode : Constant
    Bit rate : 384 kb/s
    Channel(s) : 6 channels
    Channel positions : Front: L C R, Side: L R, LFE
    Sampling rate : 48.0 kHz
    Frame rate : 31.250 FPS (1536 spf)
    Bit depth : 16 bits
    Compression mode : Lossy
    Stream size : 369 MiB (7%)
    Title : AVO Matveev
    Language : Russian
    Default : Yes
    Forced : Yes
    Audio #2
    ID : 3
    Format : AC-3
    Format/Info : Audio Coding 3
    Mode extension : CM (complete main)
    Format settings, Endianness : Big
    Codec ID : A_AC3
    Duration : 2 h 14 min
    Bit rate mode : Constant
    Bit rate : 384 kb/s
    Channel(s) : 6 channels
    Channel positions : Front: L C R, Side: L R, LFE
    Sampling rate : 48.0 kHz
    Frame rate : 31.250 FPS (1536 spf)
    Bit depth : 16 bits
    Compression mode : Lossy
    Stream size : 369 MiB (7%)
    Title : Original
    Language : English
    Default : No
    Forced : No
    Text #1
    ID : 4
    Format : UTF-8
    Codec ID : S_TEXT/UTF8
    Codec ID/Info : UTF-8 Plain Text
    Duration : 2 h 5 min
    Bit rate : 7 b/s
    Count of elements : 69
    Stream size : 7.07 KiB (0%)
    Title : Forced Matveev
    Language : Russian
    Default : Yes
    Forced : No
    Text #2
    ID : 5
    Format : UTF-8
    Codec ID : S_TEXT/UTF8
    Codec ID/Info : UTF-8 Plain Text
    Duration : 2 h 13 min
    Bit rate : 72 b/s
    Count of elements : 1570
    Stream size : 71.4 KiB (0%)
    Title : Full iTunes
    Language : Russian
    Default : No
    Forced : No
    Text #3
    ID : 6
    Format : UTF-8
    Codec ID : S_TEXT/UTF8
    Codec ID/Info : UTF-8 Plain Text
    Duration : 2 h 7 min
    Bit rate : 47 b/s
    Count of elements : 1619
    Stream size : 44.6 KiB (0%)
    Title : Full
    Language : English
    Default : No
    Forced : No
    Menu
    00: 00: 00.000 : en: 1
    00: 20: 22.000 : en: 2
    00: 35: 08.000 : en: 3
    00: 50: 09.000 : en: 4
    01: 07: 25.000 : en: 5
    01: 21: 12.000 : en: 6
    01: 40: 14.000 : en: 7
    02: 00: 50.000 : en: 8


    Релиз подготовил: Автор релиза:

    Онлайн видео Отряд самоубийц


    Размер скачиваемого торрента: 5.00 GB (5372526437 Bytes)

    Отряд самоубийц/Suicide Squad (2016) WEB-DL 1080p от ExKinoRay | Extended Cut | A
    загрузка...
    Рейтинг →
     (голосов: 1, оценка 5/5, голосовать можно 1 раз )

    Другие торренты по теме:



      Комментарии (0):

      Информация

      Информация

        Посетители, находящиеся в группе Гости, не могут оставлять комментарии в данной новости.

        ↓ Меню



        ↓ Опрос

        А Вы добавили сайт в закладки?
        Да
        Не


        Top 10 за неделю (Фильмы)