.
Авторизация | Регистрация
» » Сноуден / Snowden (2016) WEB-DLRip от Portablius | Line скачать торрент бесплатно




    Сноуден / Snowden (2016) WEB-DLRip от Portablius | Line скачать торрент бесплатно

    Опубликовал: Админ | Дата: 25-11-2016, 05:00 | Просмотров: 35



    Детально о кино
    Русское название: Сноуден
    Русское название в мировом прокате: Snowden
    Создали в: 2016
    Категория жанра: триллер, драма, биография
    Главный режиссер: Оливер Стоун

    Актеры
    Джозеф Гордон-Левитт, Шейлин Вудли, Мелисса Лео, Закари Куинто, Том Уилкинсон, Скотт Иствуд, Рис Иванс, Николас Кейдж, Тимоти Олифант

    Сюжет фильма
    Он мечтал продолжить семейную традицию и посвятить свою жизнь служению Родине. Он безоговорочно верил в правительство США и поддерживал антитеррористическую программу. На заре его карьеры в спецслужбах никто, даже он сам, не мог бы предположить, что именно он, Эдвард Сноуден, совершит самое крупное разоблачение в мировой истории, обнародовав секретные документы, касающиеся тотальной слежки США за своими гражданами и гражданами других государств. Открыв миру глаза на правду, он навсегда закрыл для себя двери в счастливое будущее: отказался от карьеры, любимой девушки и Родины, которая назвала его предателем…

    Снималось в: США, Германия, Франция
    Киностудия: Endgame Entertainment, KrautPack Entertainment, Vendian Entertainment
    Время просмотра: 02: 14: 07
    Перевод текста: Профессиональный (полное дублирование) | чистый звук
    Субтитры: Нет
    Семпл
    Файл
    Кодек для видео: XviD
    Качество фильма: WEB-DLRip
    Информация о видео: 688x288 (2.39: 1), 24 fps, XviD build 73 ~643 kbps avg, 0.14 bit/pixel
    Информация о звуке: 48 kHz, MPEG Layer 3, 2 ch, ~128.00 kbps avg
    MediaInfo
    Общее
    Полное имя : Snowden.2016.WEB-DLRip.ot.Portablius.avi
    Формат : AVI
    Формат/Информация : Audio Video Interleave
    Размер файла : 749 Мбайт
    Продолжительность : 2 ч. 14 м.
    Общий поток : 781 Кбит/сек
    Программа кодирования : VirtualDubMod 1.5.10.3 | www.virtualdub-fr.org || (build 2550/release)
    Библиотека кодирования : VirtualDubMod build 2550/release
    Видео
    Идентификатор : 0
    Формат : MPEG-4 Visual
    Профиль формата : Advanced Simple@L5
    Параметр BVOP формата : 1
    Параметр QPel формата : Нет
    Параметр GMC формата : Без точки перехода
    Параметр матрицы формата : Выборочная
    Идентификатор кодека : XVID
    Идентификатор кодека/Подсказка : XviD
    Продолжительность : 2 ч. 14 м.
    Битрейт : 643 Кбит/сек
    Ширина : 688 пикселей
    Высота : 288 пикселей
    Соотношение сторон : 2, 40: 1
    Частота кадров : 24, 000 кадра/сек
    Цветовое пространство : YUV
    Субдискретизация насыщенности : 4: 2: 0
    Битовая глубина : 8 бит
    Тип развёртки : Прогрессивная
    Метод сжатия : С потерями
    Бит/(Пиксели*Кадры) : 0.135
    Размер потока : 617 Мбайт (82%)
    Библиотека кодирования : XviD 73
    Аудио
    Идентификатор : 1
    Формат : MPEG Audio
    Версия формата : Version 1
    Профиль формата : Layer 3
    Идентификатор кодека : 55
    Идентификатор кодека/Подсказка : MP3
    Продолжительность : 2 ч. 14 м.
    Вид битрейта : Постоянный
    Битрейт : 128 Кбит/сек
    Каналы : 2 канала
    Частота : 48, 0 КГц
    Метод сжатия : С потерями
    Размер потока : 123 Мбайт (16%)
    Выравнивание : Соединение по промежуткам
    Продолжительность промежутка : 42 мс. (1, 00 видеокадр)
    Время предзагрузки промежутка : 504 мс.
    Библиотека кодирования : LAME3.99r
    Залил: Evgen Portable

    Онлайн видео Сноуден


    Размер скачиваемого торрента: 748.90 MB (785281024 Bytes)


    Сноуден/Snowden (2016) WEB-DLRip от Portablius | Line
    загрузка...
    Рейтинг →
     (голосов: 1, оценка 3/5, голосовать можно 1 раз )

    Другие торренты по теме:

  • Сноуден / Snowden (2016) WEB-DLRip от Flash | Line скачать торрент бесплатно
  • Сноуден / Snowden (2016) WEB-DLRip от Scarabey | Line скачать торрент бесплатно
  • Сноуден / Snowden (2016) WEB-DLRip-AVC от ExKinoRay | Line скачать торрент бесплатно
  • Сноуден / Snowden (2016) HDRip от Scarabey | iTunes скачать торрент бесплатно
  • Сноуден / Snowden (2016) BDRip-AVC от HELLYWOOD | iTunes скачать торрент бесплатно


    • Комментарии (0):

      Информация

      Информация

        Посетители, находящиеся в группе Гости, не могут оставлять комментарии в данной новости.

        ↓ Меню



        ↓ Опрос

        А Вы добавили сайт в закладки?
        Да
        Не


        Top 10 за неделю (Фильмы)