.
Авторизация | Регистрация
Хочешь лучшие торренты? Добавь свой email!
Добавить
» » Заряженное оружие 1 / Loaded Weapon 1 (1993) WEBRip-AVC от k.e.n | P, P2, A торрент скачать бесплатно




    Заряженное оружие 1 / Loaded Weapon 1 (1993) WEBRip-AVC от k.e.n | P, P2, A торрент скачать бесплатно

    Опубликовал: Админ | Дата: 27-11-2016, 05:00 | Просмотров: 6



    Создали в: США, New Line Cinema, 3 Arts Entertainment
    Категория жанра: Боевик, Комедия, Приключения
    Главный режиссер: Джин Квинтано
    Актеры: Эмилио Эстевез, Сэмюэл Л. Джексон, Брюс Уиллис, Вупи Голдберг, Чарли Шин, Дэнис Ричардс, Фрэнк МакРей, Денис Лири, Кристофер Ламберт, Роберт Шэй, Ф. Мюррэй Абрахам, Уильям Шэтнер, Эллис Бисли, Эрик Эстрада, Гокул, Джон Ловиц, Диру Шах, Кэти Айрленд, Тим Карри, Том Бруггеман, Билл Нанн, Пол Глисон, Кори Фельдман, Дж.Т. Уолш, Джеймс Дуэн, Лин Шэй, Рик Дукомман

    Описание фильма

    Два детектива — Джек Кольт и Уэс Люгер ищут убийцу бывшей напарницы и борются с торговцем наркотиками — неким генералом Мортарсом.

    Время просмотра: 01: 22: 29
    Качество фильма видео: WEBRip-AVC
    Перевод текста: Профессиональный (многоголосый, закадровый), профессиональный (двухголосый, закадровый), авторский (одноголосый, закадровый)
    Информация о видео: AVC, 1024x556 (16: 9), 23.976 fps, 2 624 Kbps (0.192 bit/pixel)
    Информация о звуке 1: AC3, 2 ch, 256 kbps | Русский (AVO, А. Михалев)
    Информация о звуке 2: AC3, 2 ch, 256 kbps | Русский (AVO, Л. Володарский)
    Информация о звуке 3: AC3, 2 ch, 256 kbps | Русский (AVO, В. Горчаков)
    Информация о звуке 4: AC3, 2 ch, 192 kbps | Русский (DVO, НТВ/РТР)
    Информация о звуке 5: AC3, 2 ch, 192 kbps | Русский (MVO, ТНТ)
    Mediainfo:

    Формат : Matroska
    Версия формата : Version 2
    Размер файла : 2, 18 Гбайт
    Продолжительность : 1 ч. 22 м.
    Общий поток : 3776 Кбит/сек
    Название фильма : Заряженное оружие
    Дата кодирования : UTC 2016-11-26 05: 31: 28
    Программа кодирования : mkvmerge v5.3.0 (;I could have danced;) built on Feb 9 2012 10: 38: 07
    Библиотека кодирования : libebml v1.2.3 + libmatroska v1.3.0
    Attachment : Yes
    Видео
    Идентификатор : 1
    Формат : AVC
    Формат/Информация : Advanced Video Codec
    Профиль формата : High@L4.1
    Параметр CABAC формата : Да
    Параметр ReFrames формата : 12 кадров
    Идентификатор кодека : V_MPEG4/ISO/AVC
    Продолжительность : 1 ч. 22 м.
    Битрейт : 2624 Кбит/сек
    Ширина : 1024 пикселя
    Высота : 556 пикселей
    Соотношение сторон : 1, 85: 1
    Режим частоты кадров : Постоянный
    Частота кадров : 23, 976 кадра/сек
    Цветовое пространство : YUV
    Субдискретизация насыщенности : 4: 2: 0
    Битовая глубина : 8 бит
    Тип развёртки : Прогрессивная
    Бит/(Пиксели*Кадры) : 0.192
    Размер потока : 1, 47 Гбайт (67%)
    Библиотека кодирования : x264 core 146 r2538 121396c
    Настройки программы : cabac=1/ref=12/deblock=1: -3: -3/analyse=0x3: 0x133/me=umh/subme=11/psy=1/psy_rd=1.00: 0.10/mixed_ref=1/me_range=32/chroma_me=1/trellis=2/8x8dct=1/cqm=0/deadzone=21, 11/fast_pskip=0/chroma_qp_offset=-3/threads=12/lookahead_threads=2/sliced_threads=0/nr=0/decimate=0/interlaced=0/bluray_compat=0/constrained_intra=0/bframes=8/b_pyramid=2/b_adapt=2/b_bias=0/direct=3/weightb=1/open_gop=0/weightp=2/keyint=240/keyint_min=23/scenecut=40/intra_refresh=0/rc_lookahead=40/rc=2pass/mbtree=0/bitrate=2624/ratetol=1.0/qcomp=0.60/qpmin=0/qpmax=69/qpstep=4/cplxblur=20.0/qblur=0.5/vbv_maxrate=50000/vbv_bufsize=62500/nal_hrd=none/filler=0/ip_ratio=1.40/pb_ratio=1.30/aq=1: 0.90
    Язык : English
    Default : Да
    Forced : Нет
    Аудио #1
    Идентификатор : 2
    Формат : AC-3
    Формат/Информация : Audio Coding 3
    Расширение режима : CM (complete main)
    Параметр Endianness формата : Big
    Идентификатор кодека : A_AC3
    Продолжительность : 1 ч. 22 м.
    Вид битрейта : Постоянный
    Битрейт : 256 Кбит/сек
    Каналы : 2 канала
    Расположение каналов : Front: L R
    Частота : 48, 0 КГц
    Битовая глубина : 16 бит
    Метод сжатия : С потерями
    Задержка видео : 160 мс.
    Размер потока : 151 Мбайт (7%)
    Заголовок : А. Михалев
    Язык : Russian
    Default : Да
    Forced : Нет
    Аудио #2
    Идентификатор : 3
    Формат : AC-3
    Формат/Информация : Audio Coding 3
    Расширение режима : CM (complete main)
    Параметр Endianness формата : Big
    Идентификатор кодека : A_AC3
    Продолжительность : 1 ч. 22 м.
    Вид битрейта : Постоянный
    Битрейт : 256 Кбит/сек
    Каналы : 2 канала
    Расположение каналов : Front: L R
    Частота : 48, 0 КГц
    Битовая глубина : 16 бит
    Метод сжатия : С потерями
    Задержка видео : 160 мс.
    Размер потока : 151 Мбайт (7%)
    Заголовок : Л. Володарский
    Язык : Russian
    Default : Нет
    Forced : Нет
    Аудио #3
    Идентификатор : 4
    Формат : AC-3
    Формат/Информация : Audio Coding 3
    Расширение режима : CM (complete main)
    Параметр Endianness формата : Big
    Идентификатор кодека : A_AC3
    Продолжительность : 1 ч. 22 м.
    Вид битрейта : Постоянный
    Битрейт : 256 Кбит/сек
    Каналы : 2 канала
    Расположение каналов : Front: L R
    Частота : 48, 0 КГц
    Битовая глубина : 16 бит
    Метод сжатия : С потерями
    Задержка видео : 160 мс.
    Размер потока : 151 Мбайт (7%)
    Заголовок : В. Горчаков
    Язык : Russian
    Default : Нет
    Forced : Нет
    Аудио #4
    Идентификатор : 5
    Формат : AC-3
    Формат/Информация : Audio Coding 3
    Расширение режима : CM (complete main)
    Параметр Endianness формата : Big
    Идентификатор кодека : A_AC3
    Продолжительность : 1 ч. 22 м.
    Вид битрейта : Постоянный
    Битрейт : 192 Кбит/сек
    Каналы : 2 канала
    Расположение каналов : Front: L R
    Частота : 48, 0 КГц
    Битовая глубина : 16 бит
    Метод сжатия : С потерями
    Задержка видео : 1 с. 190 мс.
    Размер потока : 113 Мбайт (5%)
    Заголовок : НТВ
    Язык : Russian
    Default : Нет
    Forced : Нет
    Аудио #5
    Идентификатор : 6
    Формат : AC-3
    Формат/Информация : Audio Coding 3
    Расширение режима : CM (complete main)
    Параметр Endianness формата : Big
    Идентификатор кодека : A_AC3
    Продолжительность : 1 ч. 22 м.
    Вид битрейта : Постоянный
    Битрейт : 192 Кбит/сек
    Каналы : 2 канала
    Расположение каналов : Front: L R
    Частота : 48, 0 КГц
    Битовая глубина : 16 бит
    Метод сжатия : С потерями
    Задержка видео : 1 с. 190 мс.
    Размер потока : 113 Мбайт (5%)
    Заголовок : РТР
    Язык : Russian
    Default : Нет
    Forced : Нет

    Скриншоты:

    Релиз подготовил: K.E.N
    (NNM-CLUB)

    Онлайн видео Заряженное оружие 1


    Размер скачиваемого торрента: 2.18 GB (2335980304 Bytes)

    Заряженное оружие 1/Loaded Weapon 1 (1993) WEBRip-AVC от k.e.n | P, P2, A
    загрузка...
    Рейтинг →
     (голосов: 1, оценка 5/5, голосовать можно 1 раз )

    Другие торренты по теме:

  • Заряженное оружие 1 / National Lampoons Loaded Weapon 1 (1993) DVDRip-AVC от olegek70 | P2, A
  • Заряженное оружие 1 / Loaded Weapon 1 (1993) DVDRip | P скачать через торрент бесплатно
  • Заряженное оружие 1 / Loaded Weapon 1 (1993) HDTVRip 720p | P, P2, Р1
  • Заряженное оружие 1 / Loaded Weapon 1 (1993) HDTVRip | P2 ,Р1
  • Заряженное оружие 1 / National Lampoons Loaded Weapon 1 (1993) WEBRip от Leon-masl | P, A


    • Комментарии (0):

      Информация

      Информация

        Посетители, находящиеся в группе Гости, не могут оставлять комментарии в данной новости.

        ↓ Меню



        ↓ Опрос

        А Вы добавили сайт в закладки?
        Да
        Не


        Top 10 за месяц (Фильмы)