.
Авторизация | Регистрация
» » Тихий Дон (2015) WEB-DL 1080p от ExKinoRay скачать торрент бесплатно




    Тихий Дон (2015) WEB-DL 1080p от ExKinoRay скачать торрент бесплатно

    Опубликовал: Админ | Дата: 27-11-2016, 05:01 | Просмотров: 36



    Тихий Дон
    Эпизод с 1 по 14 (из 14)

    Создали в: 2015
    Снималось в: Россия
    Создали в: Москино
    Категория жанра: Драма
    Главный режиссёр: Сергей Урсуляк

    Актеры
    Евгений Ткачук, Полина Чернышова, Сергей Маковецкий, Людмила Зайцева, Артур Иванов, Анастасия Веденская, Дарья Урсуляк, Никита Ефремов, Александр Яценко, Надежда Лумпова, Виталия Корниенко, Захар Соколов, Пётр Воробьёв, Валерий Жуков, Александр Потапов, Александр Завьялов, Станислав Костецкий, Иван Федотов, Константин Белошапка, Иван Лапин, Тимофей Трибунцев, Александр Горбатов (II), Иван Орлов, Юлия Сулес, Юлия Полынская, Полина Пушкарук, Ирина Латушко, Нина Андронаки, Лика Нифонтова, Дмитрий Белякин, Наталья Савченко, Константин Желдин, Антон Кузнецов, Сергей Сотников
    Перевод текста: Не требуется
    Субтитры: Нет
    Реклама: Отсутствует

    Описание фильма
    Экранизация одноименного романа Михаила Шолохова. Фильм охватывает события Первой мировой войны, Октябрьской революции и Гражданской войны. Действие начинается в 1912 году. Герои картины – соседи, станичники, казаки с хутора Татарский станицы Вешенской - живут на этой земле испокон веков, они связаны родством, дружбой, любовью, общим трудом и военной службой. Но этот прочный и самодостаточный мир со своим неповторимым жизненным укладом, привычками и особой системой взглядов и ценностей рушится под натиском кровавой смуты и революции. Дон разделен ненавистью. Казавшиеся незыблемыми вековые основы донской жизни – земля, хутор, семья, воинский долг растворяются в горниле братоубийственной войны. Семьи Мелеховых, Коршуновых, Астаховых, вовлечены в круговорот военных и политических событий.


    Качество фильма: WEB-DL 1080
    Время просмотра: 14 х 00: 45: 00
    Тип видео: MKV
    Информация о видео кодек: MPEG-4 AVC
    Информация о звуке кодек: АС3
    Свойства видео: 1920x1080 (16: 9), 25 fps, MPEG-4 AVC ~2 750 kbps avg, 0.053 bit/pixel
    Свойства аудио: 48 KHz, AC3, 2 ch, ~192.00 kbps avg

    MediaInfo

    Общее
    Уникальный идентификатор : 241563494636750000749050680899034454529 (0xB5BB6FD0C28CE18EAE14A036A56C9A01)
    Полное имя : D: Tihii.Don.2015.WEB-DL(1080p).ExKinoRay1.Tihii.Don.2015.WEB-DL(1080p).ExKinoRay.mkv
    Формат : Matroska
    Версия формата : Version 2
    Размер файла : 956 Мбайт
    Продолжительность : 44 м.
    Общий поток : 2990 Кбит/сек
    Дата кодирования : UTC 2016-11-25 07: 12: 57
    Программа кодирования : mkvmerge v7.8.0 (;River Man;) 32bit built on Apr 3 2015 12: 11: 22
    Библиотека кодирования : libebml v1.3.1 + libmatroska v1.4.2
    Видео
    Идентификатор : 1
    Формат : AVC
    Формат/Информация : Advanced Video Codec
    Профиль формата : High@L4.0
    Параметр CABAC формата : Да
    Параметр ReFrames формата : 3 кадра
    Идентификатор кодека : V_MPEG4/ISO/AVC
    Продолжительность : 44 м.
    Битрейт : 2739 Кбит/сек
    Ширина : 1920 пикселей
    Высота : 1080 пикселей
    Соотношение сторон : 16: 9
    Режим частоты кадров : Постоянный
    Частота кадров : 25, 000 кадров/сек
    Цветовое пространство : YUV
    Субдискретизация насыщенности : 4: 2: 0
    Битовая глубина : 8 бит
    Тип развёртки : Прогрессивная
    Бит/(Пиксели*Кадры) : 0.053
    Размер потока : 876 Мбайт (92%)
    Default : Да
    Forced : Нет
    Основные цвета : BT.709
    Характеристики трансфера : BT.709
    Коэффициенты матрицы : BT.709
    Аудио
    Идентификатор : 2
    Формат : AC-3
    Формат/Информация : Audio Coding 3
    Расширение режима : CM (complete main)
    Параметр Endianness формата : Big
    Идентификатор кодека : A_AC3
    Продолжительность : 44 м.
    Вид битрейта : Постоянный
    Битрейт : 192 Кбит/сек
    Каналы : 2 канала
    Расположение каналов : Front: L R
    Частота : 48, 0 КГц
    Битовая глубина : 16 бит
    Метод сжатия : С потерями
    Размер потока : 61, 4 Мбайт (6%)
    Default : Да
    Forced : Нет

    Скриншоты



    Залил: TorpedoUK
    Размер скачиваемого торрента: 11.58 GB (12439267690 Bytes)

    Тихий Дон (2015) WEB-DL 1080p от ExKinoRay
    загрузка...
    Рейтинг →
     (голосов: 1, оценка 3/5, голосовать можно 1 раз )

    Другие торренты по теме:

  • Тихий центр (4 серии из 4) / 2010 / РУ / WEB-DL (1080p) скачать торрент бесплатно
  • Тихий Дон (2015) WEB-DLRip AVC от Generalfilm скачать торрент бесплатно
  • Тихая охота (2014) WEB-DLRip от SANNYa скачать через торрент бесплатно
  • А зори здесь тихие... (2015) WEB-DLRip скачать торрент бесплатно
  • А зори здесь тихие... (2015) WEB-DLRip 720p скачать торрент бесплатно
  • А зори здесь тихие... (2015) WEB-DLRip 1080p скачать торрент бесплатно
  • А зори здесь тихие... (2015) WEB-DLRip-AVC от ExKinoRay скачать торрент бесплатно
  • А зори здесь тихие... (2015) WEB-DLRip от -=HD-NET=- | КПК скачать торрент бесплатно


    • Комментарии (0):

      Информация

      Информация

        Посетители, находящиеся в группе Гости, не могут оставлять комментарии в данной новости.

        ↓ Меню



        ↓ Опрос

        А Вы добавили сайт в закладки?
        Да
        Не


        Top 10 за неделю (Фильмы)