.
Авторизация | Регистрация
» » Девушка с маяка (1956) WEB-DLRip от New-Team скачать торрент бесплатно




    Девушка с маяка (1956) WEB-DLRip от New-Team скачать торрент бесплатно

    Опубликовал: Админ | Дата: 27-11-2016, 05:02 | Просмотров: 42



    Снималось в: СССР
    Создали в: Киевская студия художественных фильмов
    Категория жанра: драма, мелодрама
    Создали в: 1956
    Время просмотра: 01: 13: 42
    Перевод текста: Не требуется
    Субтитры подготовлены: нет
    Оригинальная аудиодорожка: русский
    Главный режиссер: Григорий Крикун

    Актеры

    Ия Арепина, Юрий Чекулаев, Фёдор Брайченко, Сергей Ромоданов, Валентина Телегина, И. Крымчак, Софья Карамаш, Людмила Татьянчук, Степан Шкурат, Майя Казакова, Иван Матвеев...
    Полный список актёров
    Описание:
    По повести Олеся Гончара Пусть горит огонёк.
    На небольшом островке живёт семья служителя маяка, бывшего боцмана Лелеки. Марийка, дочь Лелеки, влюблена в Игоря, капитана морского катера, который время от времени привозит светильный газ для маяка. Встречи Марийки и Игоря доставляют страдание влюбленному в Марийку мотористу Дёме. Вскоре Игорь увлекается другой девушкой. Напрасно ожидает его доверчивая Марийка…



    Источник: WEB-DL 576i
    Качество фильма видео: WEB-DLRip
    Тип видео видео: AVI
    Информация о видео: 720x544 (4: 3), 25 fps, XviD ~ 1916 kbps avg, 0.196 bit/pixel
    Информация о звуке: 48 kHz, Dolby Digital AC3 2.0, 192 kbps
    Раздача от:
    MediaInfo

    Общее
    Полное имя : Devushka.s.mayaka.1956.SATRip_New-team_by_AVP_Studio.avi
    Формат : AVI
    Формат/Информация : Audio Video Interleave
    Размер файла : 1, 09 Гбайт
    Продолжительность : 1 ч. 13 м.
    Общий поток : 2118 Кбит/сек
    Программа кодирования : VirtualDubMod 1.5.10.3 | www.virtualdub-fr.org || (build 2550/release)
    Библиотека кодирования : VirtualDubMod build 2550/release
    Видео
    Идентификатор : 0
    Формат : MPEG-4 Visual
    Профиль формата : Advanced Simple@L5
    Параметр BVOP формата : 1
    Параметр QPel формата : Нет
    Параметр GMC формата : Без точки перехода
    Параметр матрицы формата : Выборочная
    Идентификатор кодека : XVID
    Идентификатор кодека/Подсказка : XviD
    Продолжительность : 1 ч. 13 м.
    Битрейт : 1916 Кбит/сек
    Ширина : 720 пикселей
    Высота : 544 пикселя
    Соотношение сторон : 4: 3
    Частота кадров : 25, 000 кадров/сек
    Цветовое пространство : YUV
    Субдискретизация насыщенности : 4: 2: 0
    Битовая глубина : 8 бит
    Тип развёртки : Прогрессивная
    Метод сжатия : С потерями
    Бит/(Пиксели*Кадры) : 0.196
    Размер потока : 1010 Мбайт (90%)
    Библиотека кодирования : XviD 1.2.1 (UTC 2008-12-04)
    Аудио
    Идентификатор : 1
    Формат : AC-3
    Формат/Информация : Audio Coding 3
    Расширение режима : CM (complete main)
    Параметр Endianness формата : Big
    Идентификатор кодека : 2000
    Продолжительность : 1 ч. 13 м.
    Вид битрейта : Постоянный
    Битрейт : 192 Кбит/сек
    Каналы : 2 канала
    Расположение каналов : Front: L R
    Частота : 48, 0 КГц
    Частота кадров : 31, 250 кадров/сек (1536 spf)
    Битовая глубина : 16 бит
    Метод сжатия : С потерями
    Размер потока : 101 Мбайт (9%)
    Выравнивание : Разделение по промежуткам
    Продолжительность промежутка : 40 мс. (1, 00 видеокадр)
    Время предзагрузки промежутка : 500 мс

    Скриншоты



    Залил: AVPStudio

    Онлайн видео Девушка с маяка (1956) WEB


    Размер скачиваемого торрента: 1.09 GB (1170460672 Bytes)

    Девушка с маяка (1956) WEB-DLRip от New-Team
    загрузка...
    Рейтинг →
     (голосов: 1, оценка 4/5, голосовать можно 1 раз )

    Другие торренты по теме:

  • Девушка с маяка (1956) WEB-DLRip-AVC от New-Team скачать торрент бесплатно


    • Комментарии (0):

      Информация

      Информация

        Посетители, находящиеся в группе Гости, не могут оставлять комментарии в данной новости.

        ↓ Меню



        ↓ Опрос

        А Вы добавили сайт в закладки?
        Да
        Не


        Top 10 за неделю (Фильмы)