.
Авторизация | Регистрация
Хочешь лучшие торренты? Добавь свой email!
Добавить
» » Колдунья / Bewitched (2005) WEB-DL 1080p | D, P торрент скачать бесплатно




    Колдунья / Bewitched (2005) WEB-DL 1080p | D, P торрент скачать бесплатно

    Опубликовал: Админ | Дата: 28-11-2016, 05:00 | Просмотров: 7



    Детально о кино
    Русское название: Колдунья
    Русское название в мировом прокате: Bewitched
    Создали в: 2005
    Категория жанра: комедия, мелодрама, фэнтези
    Главный режиссер: Нора Эфрон/Nora Ephron

    Актеры
    Николь Кидман, Уилл Феррелл, Ширли МакЛейн, Майкл Кейн, Джейсон Шварцман, Кристин Ченоуэт, Хезер Барнс, Джим Тернер, Стефен Колбер, Дэвид Алан Грайр

    Сюжет фильма
    Карьера ранее популярного актера Джека Уайтта идет на спад. Пытаясь возродить былую славу, Джек берется за выгодный проект — киноремейк классического телесериала о мужчине, женившемся на колдунье. Актер требует, чтобы в паре с ним играла не звезда, а малоизвестная актриса, не способная его затмить. Случайная знакомая Изабель Бигелоу кажется идеальным вариантом. Но никто из съемочной группы не знает, что Изабель — и в самом деле колдунья…

    Снималось в: США
    Киностудия: Columbia Pictures Corporation, Red Wagon Entertainment
    Время просмотра: 01: 42: 02
    Перевод текста #1 : Профессиональный (полное дублирование)
    Перевод текста #2 : Профессиональный (двухголосый) Tycoon-studio
    Субтитры подготовлены : Русский, Английский
    Контейнер: MKV
    Качество фильма: WEB DL 1080p
    Информация о видео: MPEG-4 AVC, High@L4.0, 5 064 kb/s, 1 920x1 080, 23.976 fps
    Информация о звуке1 : Русский (AC3, 6ch, 448 Кбит/сек, 48.0 KHz)
    Информация о звуке2 : Русский (AC3, 6ch, 448 Кбит/сек, 48.0 KHz) DVO (Tycoon-studio)
    Информация о звуке3 : Английский (AC3 6ch, 384 Кбит/сек, 48.0 KHz)
    Субтитры : Russian SRT, English SRT
    Навигация по главам: есть (En)
    Глобальные тэги: есть
    MI
    Общее
    Уникальный идентификатор : 243358219656328146773900915510830863082 (0xB7151697378FC6C89D81794D33EA92EA)
    Полное имя : E: Колдунья Bewitched (2005).mkv
    Формат : Matroska
    Версия формата : Version 4/Version 2
    Размер файла : 4, 52 Гбайт
    Продолжительность : 1 ч. 42 м.
    Общий поток : 6347 Кбит/сек
    Название фильма : Bewitched
    Тип содержимого : Movie
    Описание : Be warned. Be ready.
    Дата выпуска : 2005-06-21
    Дата кодирования : UTC 2016-11-27 14: 21: 29
    Программа кодирования : mkvmerge v9.5.0 (;Quiet Fire;) 64bit
    Библиотека кодирования : libebml v1.3.4 + libmatroska v1.4.5
    Обложка : Yes
    Attachments : cover.jpg
    ACTOR : Nicole Kidman, Will Ferrell, Shirley MacLaine, Michael Caine, Jason Schwartzman, Kristin Chenoweth, Heather Burns, Jim Turner, Stephen Colbert, David Alan Grier, Michael Badalucco, Carole Shelley, Steve Carell, Katie Finneran, James Lipton, Brittany ...
    ARTIST : Nicole Kidman, Will Ferrell, Shirley MacLaine, Michael Caine, Jason Schwartzman, Kristin Chenoweth, Heather Burns, Jim Turner, Stephen Colbert, David Alan Grier, Michael Badalucco, Carole Shelley, Steve Carell, Katie Finneran, James Lipton, Brittany ...
    DIRECTOR : Nora Ephron
    GENRE : Comedy, Fantasy, Romance
    LAW_RATING : PG-13
    PRODUCER : Nora Ephron, Lucy Fisher, Penny Marshall, Douglas Wick
    PRODUCTION_STUDIO : Columbia Pictures
    SUMMARY : Be warned. Be ready.
    SYNOPSIS : Thinking he can overshadow an unknown actress in the part, an egocentric actor unknowingly gets a witch cast in an upcoming television remake of the classic show Bewitched.
    Видео
    Идентификатор : 1
    Формат : AVC
    Формат/Информация : Advanced Video Codec
    Профиль формата : High@L4
    Параметр CABAC формата : Да
    Параметр ReFrames формата : 4 кадра
    Идентификатор кодека : V_MPEG4/ISO/AVC
    Продолжительность : 1 ч. 42 м.
    Битрейт : 5064 Кбит/сек
    Ширина : 1920 пикселей
    Высота : 1080 пикселей
    Соотношение сторон : 16: 9
    Режим частоты кадров : Постоянный
    Частота кадров : 23, 976 (24000/1001) кадра/сек
    Цветовое пространство : YUV
    Субдискретизация насыщенности : 4: 2: 0
    Битовая глубина : 8 бит
    Тип развёртки : Прогрессивная
    Бит/(Пиксели*Кадры) : 0.102
    Размер потока : 3, 61 Гбайт (80%)
    Default : Да
    Forced : Нет
    Цветовой диапазон : Limited
    Основные цвета : BT.709
    Характеристики трансфера : BT.709
    Коэффициенты матрицы : BT.709
    Аудио #1
    Идентификатор : 2
    Формат : AC-3
    Формат/Информация : Audio Coding 3
    Расширение режима : CM (complete main)
    Параметр Endianness формата : Big
    Идентификатор кодека : A_AC3
    Продолжительность : 1 ч. 42 м.
    Вид битрейта : Постоянный
    Битрейт : 448 Кбит/сек
    Каналы : 6 каналов
    Расположение каналов : Front: L C R, Side: L R, LFE
    Частота : 48, 0 КГц
    Частота кадров : 31, 250 кадров/сек (1536 spf)
    Битовая глубина : 16 бит
    Метод сжатия : С потерями
    Размер потока : 327 Мбайт (7%)
    Заголовок : Dubb
    Язык : Russian
    Default : Да
    Forced : Нет
    Аудио #2
    Идентификатор : 3
    Формат : AC-3
    Формат/Информация : Audio Coding 3
    Расширение режима : CM (complete main)
    Параметр Endianness формата : Big
    Идентификатор кодека : A_AC3
    Продолжительность : 1 ч. 42 м.
    Вид битрейта : Постоянный
    Битрейт : 448 Кбит/сек
    Каналы : 6 каналов
    Расположение каналов : Front: L C R, Side: L R, LFE
    Частота : 48, 0 КГц
    Частота кадров : 31, 250 кадров/сек (1536 spf)
    Битовая глубина : 16 бит
    Метод сжатия : С потерями
    Размер потока : 327 Мбайт (7%)
    Заголовок : DVO Tycoon-studio
    Язык : Russian
    Default : Нет
    Forced : Нет
    Аудио #3
    Идентификатор : 4
    Формат : AC-3
    Формат/Информация : Audio Coding 3
    Расширение режима : CM (complete main)
    Параметр Endianness формата : Big
    Идентификатор кодека : A_AC3
    Продолжительность : 1 ч. 42 м.
    Вид битрейта : Постоянный
    Битрейт : 384 Кбит/сек
    Каналы : 6 каналов
    Расположение каналов : Front: L C R, Side: L R, LFE
    Частота : 48, 0 КГц
    Частота кадров : 31, 250 кадров/сек (1536 spf)
    Битовая глубина : 16 бит
    Метод сжатия : С потерями
    Размер потока : 280 Мбайт (6%)
    Заголовок : English AC3 5.1
    Язык : English
    Default : Нет
    Forced : Нет
    Текст #1
    Идентификатор : 5
    Формат : UTF-8
    Идентификатор кодека : S_TEXT/UTF8
    Идентификатор кодека/Информация : UTF-8 Plain Text
    Продолжительность : 1 ч. 36 м.
    Битрейт : 127 бит/сек
    Count of elements : 1586
    Размер потока : 90, 1 Кбайт (0%)
    Заголовок : SRT
    Язык : Russian
    Default : Нет
    Forced : Нет
    Текст #2
    Идентификатор : 6
    Формат : UTF-8
    Идентификатор кодека : S_TEXT/UTF8
    Идентификатор кодека/Информация : UTF-8 Plain Text
    Продолжительность : 1 ч. 35 м.
    Битрейт : 79 бит/сек
    Count of elements : 1637
    Размер потока : 56, 0 Кбайт (0%)
    Заголовок : SRT
    Язык : English
    Default : Нет
    Forced : Нет
    Меню
    00: 00: 00.000 : en: Start
    00: 03: 28.000 : en: I want to be like everyone else.
    00: 06: 46.000 : en: The Jackerator
    00: 11: 24.000 : en: Strange New World
    00: 13: 27.000 : en: Sweet, Unkempt Troubled
    00: 17: 43.000 : en: Suddenly Samantha
    00: 21: 26.000 : en: Maria
    00: 25: 06.000 : en: Meet the Cast
    00: 29: 41.000 : en: Day 1
    00: 33: 42.000 : en: What would Samantha do?
    00: 37: 06.000 : en: Dog Day
    00: 41: 34.000 : en: Daddy;s Crush
    00: 43: 13.000 : en: Aunt Clara
    00: 47: 04.000 : en: The Love Hex
    00: 50: 32.000 : en: Something Terrible
    00: 53: 09.000 : en: Jack Stops By
    00: 57: 22.000 : en: Rewind
    00: 59: 15.000 : en: Test Scores
    01: 03: 16.000 : en: Restart
    01: 06: 44.000 : en: Magic.
    01: 09: 49.000 : en: Something Going On
    01: 14: 38.000 : en: Party at Jack;s
    01: 17: 33.000 : en: I;m a witch.
    01: 22: 03.000 : en: Recasting
    01: 26: 46.000 : en: Going Home
    01: 28: 25.000 : en: Uncle Arthur;s Advice
    01: 32: 56.000 : en: Chasing Isabel
    01: 34: 20.000 : en: Caught Between Two Worlds
    Скриншоты

    Залил: murderer0303

    Онлайн видео Колдунья


    Размер скачиваемого торрента: 4.52 GB (4857843876 Bytes)

    Колдунья/Bewitched (2005) WEB-DL 1080p | D, P
    загрузка...
    Рейтинг →
     (голосов: 1, оценка 4/5, голосовать можно 1 раз )

    Другие торренты по теме:

  • Колдунья / Bewitched (2005) HDTVRip от Scarabey | D
  • Колдунья / Bewitched (2005) DVDRip-AVC | D скачать через торрент бесплатно


    • Комментарии (0):

      Информация

      Информация

        Посетители, находящиеся в группе Гости, не могут оставлять комментарии в данной новости.

        ↓ Меню



        ↓ Опрос

        А Вы добавили сайт в закладки?
        Да
        Не


        Top 10 за месяц (Фильмы)