.
Авторизация | Регистрация
Хочешь лучшие торренты? Добавь свой email!
Добавить
» » Враг Близко / Close To The Enemy (2016) HDTV 720p | NEON Studio торрент скачать бесплатно




    Враг Близко / Close To The Enemy (2016) HDTV 720p | NEON Studio торрент скачать бесплатно

    Опубликовал: Админ | Дата: 28-11-2016, 05:01 | Просмотров: 47



    Детально о кино
    Русское название: Враг Близко
    Русское название в мировом прокате: Close To The Enemy
    Создали в: 2016
    Категория жанра: Драма
    Главный режиссер: Стивен Полякофф

    Актеры
    Джим Стёрджесс, Анджела Бассетт, Альфред Молина, Элфи Оуэн-Аллен, Линдси Дункан, Фредди Хаймор, Аугуст Диль, Шарлотта Райли, Сиара Чартерис, Роберт Гленистер
    Описание сериала:
    История разведчика Каллума Фергюсона, которому предстоит убедить захваченного немецкого ученого Дитера работать на британцев.


    Снималось в: Великобритания
    Киностудия: BBC Two
    Время просмотра: 1 x ~ 01: 00: 00
    Перевод текста: Любительский двухголосый
    Файл
    Кодек для видео: MKV
    Качество фильма: HDTV (720p)



    Информация о видео: MPEG-4 AVC, ~ 3000 Кбит/с, 1280x720
    Информация о звуке: 48 kHz, AC3 Dolby Digital, 2/0 (L, R) ch, ~192 kbps
    Субтитры: нет
    Релиз группа:

    MediaInfo

    Формат : Matroska
    Версия формата : Version 4/Version 2
    Размер файла : 1, 14 Гбайт
    Продолжительность : 1 ч. 0 м.
    Режим общего битрейта : Переменный
    Общий поток : 2703 Кбит/сек
    Дата кодирования : UTC 2016-11-25 11: 38: 14
    Программа кодирования : mkvmerge v6.0.0 (;Coming Up For Air;) built on Jan 20 2013 09: 52: 00
    Библиотека кодирования : libebml v1.3.0 + libmatroska v1.4.0
    Видео
    Идентификатор : 1
    Формат : AVC
    Формат/Информация : Advanced Video Codec
    Профиль формата : Main@L3.1
    Параметр CABAC формата : Нет
    Параметр ReFrames формата : 1 кадр
    Параметр GOP формата : M=1, N=12
    Идентификатор кодека : V_MPEG4/ISO/AVC
    Продолжительность : 1 ч. 0 м.
    Вид битрейта : Переменный
    Битрейт : 2457 Кбит/сек
    Максимальный битрейт : 6000 Кбит/сек
    Ширина : 1280 пикселей
    Высота : 720 пикселей
    Соотношение сторон : 16: 9
    Режим частоты кадров : Постоянный
    Частота кадров : 25, 000 кадров/сек
    Частота кадров в оригинале : 29, 970 кадров/сек
    Цветовое пространство : YUV
    Субдискретизация насыщенности : 4: 2: 0
    Битовая глубина : 8 бит
    Тип развёртки : Прогрессивная
    Бит/(Пиксели*Кадры) : 0.107
    Размер потока : 1, 03 Гбайт (91%)
    Язык : English
    Default : Да
    Forced : Нет
    Аудио
    Идентификатор : 2
    Формат : AC-3
    Формат/Информация : Audio Coding 3
    Расширение режима : CM (complete main)
    Параметр Endianness формата : Big
    Идентификатор кодека : A_AC3
    Продолжительность : 1 ч. 0 м.
    Вид битрейта : Постоянный
    Битрейт : 192 Кбит/сек
    Каналы : 2 канала
    Расположение каналов : Front: L R
    Частота : 48, 0 КГц
    Битовая глубина : 16 бит
    Метод сжатия : С потерями
    Задержка видео : -5 мс.
    Размер потока : 82, 8 Мбайт (7%)
    Язык : English
    Default : Да
    Forced : Нет
    Внимание! Раздача ведётся путём добавления новых серий
    Внимание! Раздача ведётся путём добавления новых серий; при каждом добавлении создаётся новый торрент. Чтобы начать докачку новой серии, пользователям необходимо сделать следующее:
    (1) остановить скачивание,
    (2) удалить старый торрент у себя из клиента (старые серии удалять не надо),
    (3) скачать новый торрент и запустить его у себя в клиенте вместо старого, при этом указать клиенту путь в старую папку куда и должно происходить скачивание новых серий.
    Ваш клиент при этом должен произвести хеширование (проверку) старой папки (если не производит сам - помогите ему сделать это), и будет докачивать только те серии которых у вас ещё нет. Старые серии при этом не удаляются, а продолжают раздаваться!
    Eсли вы уже удалили старые серии, то предотвратить повторную закачку старых серий можно, отжав галочку в соответсвующих местах при запуске нового торрента. По возможности, желательно не удалять старые серии как можно дольше чтобы релизёр не столько продолжал раздавать старые серии, а смог сконцентрироваться на новых.

    Скриншоты

    Залил: SPARTA111

    Онлайн видео Враг Близко


    Размер скачиваемого торрента: 1.14 GB (1221990219 Bytes)

    Враг Близко/Close To The Enemy (2016) HDTV 720p | NEON Studio
    загрузка...
    Рейтинг →
     (голосов: 1, оценка 5/5, голосовать можно 1 раз )

    Другие торренты по теме:

  • Враг Близко / Close To The Enemy (2016) HDTVRip | NEON Studio
  • Враг Близко / Close To The Enemy (2016) HDTVRip | NEON Studio
  • Враг Близко / Close To The Enemy (2016) HDTVRip | NEON Studio
  • Враг Близко / Close To The Enemy (2016) HDTV 720p | NEON Studio


    • Комментарии (0):

      Информация

      Информация

        Посетители, находящиеся в группе Гости, не могут оставлять комментарии в данной новости.

        ↓ Меню



        ↓ Опрос

        А Вы добавили сайт в закладки?
        Да
        Не


        Top 10 за месяц (Фильмы)