.
Авторизация | Регистрация
Хочешь лучшие торренты? Добавь свой email!
Добавить




Мимино (1977) HDTVRip от New-Team торрент скачать бесплатно

Опубликовал: Админ | Дата: 28-11-2016, 05:01 | Просмотров: 47



Снималось в: СССР
Создали в: Мосфильм
Категория жанра: комедия
Создали в: 1977
Время просмотра: 01: 31: 18
Перевод текста: Не требуется
Субтитры подготовлены: нет
Оригинальная аудиодорожка: русский
Главный режиссёр: Георгий Данелия

Актеры

Вахтанг Кикабидзе, Фрунзик Мкртчян, Елена Проклова, Евгений Леонов, Коте (Константин) Даушвили, Руслан Микаберидзе, Закро Сахвадзе, Марина Дюжева, Русико Морчеладзе, Арчил Гомиашвили...
Полный список актёров
Описание:
Мимино — по-грузински сокол. Так называют друзья героя фильма, летчика Валико Мизандари, по воле режиссера то и дело попадающего в смешные, грустные, а порой драматические ситуации.
Работая в родном горном селении, Мимино перевозит на вертолете почту, фрукты, овец. Но он давно мечтает о настоящей, большой авиации. Наконец, ему удается воплотить свою мечту в жизнь…




Исходник: HDTVRip 1080i
Качество фильма: HDTVRip
Тип видео: AVI
Информация о видео: 640x480 (4: 3), 25 fps, XviD ~ 1006 kbps avg, 0.131 bit/pixel
Информация о звуке: 48 kHz, MP3, 2.0 ch, 128.00 kbps
Раздача от:
MediaInfo

Общее
Полное имя : Mimino.1977.HDTVRip-745_New-team_by_AVP_Studio.avi
Формат : AVI
Формат/Информация : Audio Video Interleave
Размер файла : 746 Мбайт
Продолжительность : 1 ч. 31 м.
Общий поток : 1143 Кбит/сек
Программа кодирования : VirtualDubMod 1.5.10.3 | www.virtualdub-fr.org || (build 2550/release)
Библиотека кодирования : VirtualDubMod build 2550/release
Видео
Идентификатор : 0
Формат : MPEG-4 Visual
Профиль формата : Advanced Simple@L5
Параметр BVOP формата : 1
Параметр QPel формата : Нет
Параметр GMC формата : Без точки перехода
Параметр матрицы формата : Выборочная
Идентификатор кодека : XVID
Идентификатор кодека/Подсказка : XviD
Продолжительность : 1 ч. 31 м.
Битрейт : 1006 Кбит/сек
Ширина : 640 пикселей
Высота : 480 пикселей
Соотношение сторон : 4: 3
Частота кадров : 25, 000 кадров/сек
Цветовое пространство : YUV
Субдискретизация насыщенности : 4: 2: 0
Битовая глубина : 8 бит
Тип развёртки : Прогрессивная
Метод сжатия : С потерями
Бит/(Пиксели*Кадры) : 0.131
Размер потока : 656 Мбайт (88%)
Библиотека кодирования : XviD 1.2.1 (UTC 2008-12-04)
Аудио
Идентификатор : 1
Формат : MPEG Audio
Версия формата : Version 1
Профиль формата : Layer 3
Идентификатор кодека : 55
Идентификатор кодека/Подсказка : MP3
Продолжительность : 1 ч. 31 м.
Вид битрейта : Постоянный
Битрейт : 128 Кбит/сек
Каналы : 2 канала
Частота : 48, 0 КГц
Метод сжатия : С потерями
Размер потока : 83, 5 Мбайт (11%)
Выравнивание : Соединение по промежуткам
Продолжительность промежутка : 40 мс. (1, 00 видеокадр)
Время предзагрузки промежутка : 504 мс.
Библиотека кодирования : LAME3.99r
Залил: AVPStudio

Онлайн видео Мимино (1977) HDTVRip от New


Размер скачиваемого торрента: 745.69 MB (781907968 Bytes)


Мимино (1977) HDTVRip от New-Team
загрузка...
Рейтинг →
 (голосов: 1, оценка 5/5, голосовать можно 1 раз )

Другие торренты по теме:

  • Мимино (1977) HDTVRip от GeneralFilm
  • Мимино (1977) HDTVRip 720p
  • Мимино (1977) HDTVRip от New-Team
  • Мимино (1977) HDTVRip 720p от New-Team


    • Комментарии (0):

      Информация

      Информация

        Посетители, находящиеся в группе Гости, не могут оставлять комментарии в данной новости.

        ↓ Меню



        ↓ Опрос

        А Вы добавили сайт в закладки?
        Да
        Не


        Top 10 за месяц (Фильмы)