.
Авторизация | Регистрация
Хочешь лучшие торренты? Добавь свой email!
Добавить
» » Дни Искушения / Last Days in the Desert (2015) WEB-DL 1080p от ExKinoRay | iTunes торрент скачать бесплатно




    Дни Искушения / Last Days in the Desert (2015) WEB-DL 1080p от ExKinoRay | iTunes торрент скачать бесплатно

    Опубликовал: Админ | Дата: 11-02-2017, 11:00 | Просмотров: 0



    Детально о кино
    Русское название: Дни Искушения
    Русское название в мировом прокате: Last Days in the Desert
    Создали в: 2015
    Категория жанра: Драма, приключения, история
    Главный режиссер: Родриго Гарсия

    Актеры
    Эван МакГрегор, Киаран Хайндс, Айелет Зурер, Тай Шеридан, Сьюзэн Грэй
    О фильме:
    Иисус держит путь через пустыню, проводя сорок дней за молитвой и постом. На своем пути он борется с Искусителем за судьбу простой семьи и проходит испытание земными страстями.

    Снималось в: США
    Киностудия: American Zoetrope, Aspiration Media
    Время просмотра: 01: 39: 42
    Перевод текста: Дублированный | iTunes
    Файл
    Качество фильма: WEB-DL 1080p
    Информация о видео: MPEG-4 AVC, 1916x796, 4505 Кbit/s, 23.976 fps
    Информация о звуке:
    Информация о звуке #01: 48 kHz, AC3, 5.1, 384 Kbps | Дублированный | iTunes |
    Информация о звуке #02: 48 kHz, AC3, 5.1, 384 kbps | Оригинал |
    Субтитры: Русские, английские
    MI
    General
    Unique ID : 238666015035452411404276439225051447698 (0xB38D670AA967A383B01271B503DD0192)
    Complete name : F: VideoLast.Days.In.The.Desert.2015.WEB-DL.1080p.mkv
    Format : Matroska
    Format version : Version 4/Version 2
    File size : 3.67 GiB
    Duration : 1 h 39 min
    Overall bit rate : 5 275 kb/s
    Encoded date : UTC 2017-02-10 15: 01: 25
    Writing application : mkvmerge v8.3.0 (;Over the Horizon;) 64bit
    Writing library : libebml v1.3.1 + libmatroska v1.4.2
    Video
    ID : 1
    Format : AVC
    Format/Info : Advanced Video Codec
    Format profile : High@L4
    Format settings, CABAC : Yes
    Format settings, ReFrames : 5 frames
    Codec ID : V_MPEG4/ISO/AVC
    Duration : 1 h 39 min
    Bit rate : 4 505 kb/s
    Width : 1 916 pixels
    Height : 796 pixels
    Display aspect ratio : 2.40: 1
    Frame rate mode : Constant
    Frame rate : 23.976 (23976/1000) FPS
    Color space : YUV
    Chroma subsampling : 4: 2: 0
    Bit depth : 8 bits
    Scan type : Progressive
    Bits/(Pixel*Frame) : 0.123
    Stream size : 3.14 GiB (85%)
    Language : English
    Default : Yes
    Forced : No
    Color range : Limited
    Color primaries : BT.709
    Transfer characteristics : BT.709
    Matrix coefficients : BT.709
    Audio #1
    ID : 2
    Format : AC-3
    Format/Info : Audio Coding 3
    Mode extension : CM (complete main)
    Format settings, Endianness : Big
    Codec ID : A_AC3
    Duration : 1 h 39 min
    Bit rate mode : Constant
    Bit rate : 384 kb/s
    Channel(s) : 6 channels
    Channel positions : Front: L C R, Side: L R, LFE
    Sampling rate : 48.0 kHz
    Frame rate : 31.250 FPS (1536 spf)
    Bit depth : 16 bits
    Compression mode : Lossy
    Stream size : 274 MiB (7%)
    Title : iTunes
    Language : Russian
    Default : Yes
    Forced : No
    Audio #2
    ID : 3
    Format : AC-3
    Format/Info : Audio Coding 3
    Mode extension : CM (complete main)
    Format settings, Endianness : Big
    Codec ID : A_AC3
    Duration : 1 h 39 min
    Bit rate mode : Constant
    Bit rate : 384 kb/s
    Channel(s) : 6 channels
    Channel positions : Front: L C R, Side: L R, LFE
    Sampling rate : 48.0 kHz
    Frame rate : 31.250 FPS (1536 spf)
    Bit depth : 16 bits
    Compression mode : Lossy
    Stream size : 274 MiB (7%)
    Language : English
    Default : No
    Forced : No
    Text #1
    ID : 4
    Format : UTF-8
    Codec ID : S_TEXT/UTF8
    Codec ID/Info : UTF-8 Plain Text
    Duration : 1 h 27 min
    Bit rate : 39 b/s
    Count of elements : 505
    Stream size : 25.5 KiB (0%)
    Language : Russian
    Default : No
    Forced : No
    Text #2
    ID : 5
    Format : UTF-8
    Codec ID : S_TEXT/UTF8
    Codec ID/Info : UTF-8 Plain Text
    Duration : 1 h 27 min
    Bit rate : 22 b/s
    Count of elements : 444
    Stream size : 14.3 KiB (0%)
    Language : English
    Default : No
    Forced : No
    Menu
    00: 00: 00.000 : en: 00: 00: 00.000
    00: 05: 30.747 : en: 00: 05: 30.747
    00: 09: 12.469 : en: 00: 09: 12.469
    00: 14: 19.525 : en: 00: 14: 19.525
    00: 21: 37.880 : en: 00: 21: 37.880
    00: 25: 24.314 : en: 00: 25: 24.314
    00: 30: 09.850 : en: 00: 30: 09.850
    00: 35: 53.318 : en: 00: 35: 53.318
    00: 39: 04.384 : en: 00: 39: 04.384
    00: 43: 53.464 : en: 00: 43: 53.464
    00: 48: 49.677 : en: 00: 48: 49.677
    00: 55: 11.683 : en: 00: 55: 11.683
    00: 58: 47.607 : en: 00: 58: 47.607
    01: 05: 27.715 : en: 01: 05: 27.715
    01: 10: 46.284 : en: 01: 10: 46.284
    01: 14: 26.420 : en: 01: 14: 26.420
    01: 18: 25.075 : en: 01: 18: 25.075
    01: 21: 48.403 : en: 01: 21: 48.403
    01: 27: 42.841 : en: 01: 27: 42.841
    01: 31: 03.291 : en: 01: 31: 03.291


    Релиз подготовил: Автор релиза:

    Онлайн видео Дни Искушения


    Размер скачиваемого торрента: 3.67 GB (3944795979 Bytes)

    Дни Искушения/Last Days in the Desert (2015) WEB-DL 1080p от ExKinoRay | iTunes
    загрузка...
    Рейтинг →
     (голосов: 1, оценка 3/5, голосовать можно 1 раз )

    Другие торренты по теме:

  • Дни Искушения / Last Days in the Desert (2015) WEB-DLRip от Scarabey | iTunes
  • Дни Искушения / Last Days in the Desert (2015) WEB-DLRip-AVC от R.G.Resident | iTunes


    • Комментарии (0):

      Информация

      Информация

        Посетители, находящиеся в группе Гости, не могут оставлять комментарии в данной новости.

        ↓ Меню



        ↓ Опрос

        А Вы добавили сайт в закладки?
        Да
        Не


        Top 10 за месяц (Фильмы)