.
Авторизация | Регистрация
Хочешь лучшие торренты? Добавь свой email!
Добавить
» » Обитель зла: Последняя глава / Resident Evil: The Final Chapter (2016) CAMRip | D торрент скачать бесплатно




    Обитель зла: Последняя глава / Resident Evil: The Final Chapter (2016) CAMRip | D торрент скачать бесплатно

    Опубликовал: Админ | Дата: 11-02-2017, 11:00 | Просмотров: 0



    Детально о кино
    Русское название: Обитель зла: Последняя глава
    Русское название в мировом прокате: Resident Evil: The Final Chapter
    Создали в: 2016
    Категория жанра: ужасы, фантастика, боевик, триллер
    Главный режиссер: Пол У. С. Андерсон

    Актеры
    Милла Йовович, Иэн Глен, Эли Лартер, Шон Робертс, Оуэн Мэкен, Фрайзер Джеймс, Руби Роуз, Уильям Леви, Рола, Эвер Андерсон

    Сюжет фильма
    Действия фильма разворачиваются с того момента, на котором закончилась предыдущая часть. После того как Вескер предал Элис в Вашингтоне, конец истории человечества стал еще ближе. Элис — последняя надежда на спасение мира. Она должна вернуться к точке отсчета, туда, где все и началось — город Раккун-Сити, где корпорация Амбрелла готовится к финальной атаке по тем, кому удалось выжить. В гонке со временем Элис вооружится до зубов и объединится с друзьями и теми, кого не ожидала увидеть в роли своих союзников. Вместе они будут биться против армии мертвецов и новых чудовищных мутантов. Находясь под угрозой потери своих способностей и готовясь к неминуемой атаке корпорации, Элис столкнется с еще более трудными проблемами, а человечество тем временем будет находиться на грани гибели.

    Снималось в: Франция, Германия, Канада, Австралия/Capcom Entertainment, Impact Pictures, Screen Gems
    Время просмотра: 01: 37: 16
    Тип перевода: Дублированное
    ПРИМЕЧАНИЕ : ПРИСУТСТВУЕТ РЕКЛАМА !
    Файл
    Тип видео: AVI (XviD)
    Качество фильма: CAMRip
    Информация о видео: 1807 kb/s, 720x304
    Информация о звуке: AC3, 192 kb/s (2 ch)
    Семпл


    Скриншоты
    MI
    General
    Complete name : OboTel.Zla.2O17.D.CAMRip.14OOMB_KOSHARA.avi
    Format : AVI
    Format/Info : Audio Video Interleave
    File size : 1.37 GiB
    Duration : 1h 37mn
    Overall bit rate : 2 011 Kbps
    Writing application : VirtualDubMod 1.5.10.2 (build 2540/release)
    Writing library : VirtualDubMod build 2540/release
    Video
    ID : 0
    Format : MPEG-4 Visual
    Format profile : Advanced Simple@L5
    Format settings, BVOP : 2
    Format settings, QPel : No
    Format settings, GMC : No warppoints
    Format settings, Matrix : Custom
    Codec ID : XVID
    Codec ID/Hint : XviD
    Duration : 1h 37mn
    Bit rate : 1 808 Kbps
    Width : 720 pixels
    Height : 304 pixels
    Display aspect ratio : 2.35: 1
    Frame rate : 30.000 fps
    Color space : YUV
    Chroma subsampling : 4: 2: 0
    Bit depth : 8 bits
    Scan type : Progressive
    Compression mode : Lossy
    Bits/(Pixel*Frame) : 0.275
    Stream size : 1.23 GiB (90%)
    Writing library : XviD 1.2.1 (UTC 2008-12-04)
    Audio
    ID : 1
    Format : AC-3
    Format/Info : Audio Coding 3
    Mode extension : CM (complete main)
    Format settings, Endianness : Big
    Codec ID : 2000
    Duration : 1h 37mn
    Bit rate mode : Constant
    Bit rate : 192 Kbps
    Channel(s) : 2 channels
    Channel positions : Front: L R
    Sampling rate : 48.0 KHz
    Bit depth : 16 bits
    Compression mode : Lossy
    Stream size : 134 MiB (10%)
    Alignment : Split accross interleaves
    Interleave, duration : 33 ms (1.00 video frame)
    Interleave, preload duration : 500 ms


    Онлайн видео Обитель зла: Последняя глава


    Размер скачиваемого торрента: 1.37 GB (1467375616 Bytes)

    Обитель зла: Последняя глава/Resident Evil: The Final Chapter (2016) CAMRip | D
    загрузка...
    Рейтинг →
     (голосов: 1, оценка 4/5, голосовать можно 1 раз )

    Другие торренты по теме:

  • Обитель зла: Последняя глава / Resident Evil: The Final Chapter (2016) HDRip-1080p | Трейлер
  • Обитель зла: Последняя глава / Resident Evil: The Final Chapter (2016) CAMRip | L
  • Обитель зла: Последняя глава / Resident Evil: The Final Chapter (2016) WEBRip 720р | Звук с CAMRip
  • Обитель зла: Последняя глава / Resident Evil: The Final Chapter (2016) WEB-DL 720p от ExKinoRay | L1
  • Обитель зла: Последняя глава / Resident Evil: The Final Chapter (2016) WEB-DLRip от MegaPeer | Line
  • Обитель зла: Последняя глава / Resident Evil: The Final Chapter (2016) WEB-DL 1080p от ExKinoRay | Line
  • Обитель зла: Последняя глава / Resident Evil: The Final Chapter (2016) WEB-DLRip-AVC от OlLanDGroup | Line
  • Обитель зла: Последняя глава / Resident Evil: The Final Chapter (2016) BDRip от MegaPeer | Line


    • Комментарии (0):

      Информация

      Информация

        Посетители, находящиеся в группе Гости, не могут оставлять комментарии в данной новости.

        ↓ Меню



        ↓ Опрос

        А Вы добавили сайт в закладки?
        Да
        Не


        Top 10 за месяц (Фильмы)