.
Авторизация | Регистрация
Хочешь лучшие торренты? Добавь свой email!
Добавить
» » Люди-кошки / Cat People (1942) BDRemux 1080р | P, A торрент скачать бесплатно




    Люди-кошки / Cat People (1942) BDRemux 1080р | P, A торрент скачать бесплатно

    Опубликовал: Админ | Дата: 11-02-2017, 11:01 | Просмотров: 0



    Детально о кино
    Русское название: Люди-кошки
    Русское название в мировом прокате: Cat People
    Создали в: 1942
    Категория жанра: фильм-нуар, ужасы, фэнтези, триллер
    Главный режиссер: Жак Турнёр

    Актеры
    Симона Симон, Кент Смит, Том Конуэй, Джейн Рэндольф, Джек Холт, Генриетта Бернсайд, Алек Крэйг, Эдди Дью, Элизабет Данн, Дот Фарли, Мэри Халсли, Тереза Харрис, Чарльз Джордан, Дэннис Керр, Конни Леон, Мёрдок МакКуорри, Алан Напье, Элизабет Расселл, Стивен Солди

    Сюжет фильма
    Молодой инженер Оливер Рид знакомится в зоопарке возле клетки с черным леопардом с удивительно красивой девушкой, эмигранткой из Сербии Иреной Дубровной. У них завязывается роман, затем они становятся мужем и женой. Но Ирена боится, что ее близость с Оливером может разбудить древнее проклятие ее рода — по рассказанной ею легенде, во время турецкой оккупации жители ее родной деревни обратилась к дьяволопоклонству и приобрели способность превращаться в минуты ярости и страсти в огромных кошек…

    Снималось в: США
    Время просмотра: 01: 12: 56
    Перевод текста 1: Профессиональный (многоголосый закадровый)
    Перевод текста 2: Авторский (одноголосый закадровый) Петр Карцев
    Субтитры подготовлены: русские (arsis09), английские (SDH)
    Оригинальная аудиодорожка: английский
    Файл
    Кодек для видео: MPEG4
    Качество фильма: BDRemux 1080р
    Информация о видео: 1920x1080/16: 9/23.976fps/35000Kbps/High@L4.1
    Информация о звуке 1: AC3/48.0 KHz/2ch./128kbps/Rus/MVO
    Информация о звуке 2: AC3/48.0 KHz/2ch./128kbps/Rus/AVO/Петр Карцев
    Информация о звуке 3: DTS-HD MA/48.0 KHz/1ch/655kbps/24bit (DTS Core 48.0 KHz/1ch/255kbps/24bit) Eng
    Информация о звуке 4: AC3/48.0 KHz/2ch./192kbps/Eng/Comments
    Скриншоты

    MediaInfo
    Общее
    Уникальный идентификатор : 225002852427481907953434600087686568481 (0xA945F91D7DF6F97C95911423830D5A21)
    Полное имя : G: !!!_torrentCat.People.1942.BDRemux.1080p_by_vedigo.mkv
    Формат : Matroska
    Версия формата : Version 4/Version 2
    Размер файла : 18, 4 Гбайт
    Продолжительность : 1 ч. 12 м.
    Режим общего битрейта : Переменный
    Общий поток : 36, 1 Мбит/сек
    Название фильма : Cat.People.1942.BDRemux.1080p_by_vedigo
    Дата кодирования : UTC 2017-02-09 08: 20: 17
    Программа кодирования : mkvmerge v9.8.0 (;Kuglblids;) 64bit
    Библиотека кодирования : libebml v1.3.4 + libmatroska v1.4.5
    Видео
    Идентификатор : 1
    Формат : AVC
    Формат/Информация : Advanced Video Codec
    Профиль формата : High@L4.1
    Параметр CABAC формата : Да
    Параметр ReFrames формата : 4 кадра
    Идентификатор кодека : V_MPEG4/ISO/AVC
    Продолжительность : 1 ч. 12 м.
    Вид битрейта : Переменный
    Битрейт : 35, 0 Мбит/сек
    Максимальный битрейт : 37, 0 Мбит/сек
    Ширина : 1920 пикселей
    Высота : 1080 пикселей
    Соотношение сторон : 16: 9
    Режим частоты кадров : Постоянный
    Частота кадров : 23, 976 (24000/1001) кадра/сек
    Цветовое пространство : YUV
    Субдискретизация насыщенности : 4: 2: 0
    Битовая глубина : 8 бит
    Тип развёртки : Прогрессивная
    Бит/(Пиксели*Кадры) : 0.703
    Размер потока : 17, 8 Гбайт (97%)
    Заголовок : Cat.People.1942.BDRemux.1080p_by_vedigo
    Default : Да
    Forced : Нет
    Аудио #1
    Идентификатор : 2
    Формат : AC-3
    Формат/Информация : Audio Coding 3
    Расширение режима : CM (complete main)
    Параметр Endianness формата : Big
    Идентификатор кодека : A_AC3
    Продолжительность : 1 ч. 12 м.
    Вид битрейта : Постоянный
    Битрейт : 128 Кбит/сек
    Каналы : 2 канала
    Расположение каналов : Front: L R
    Частота : 48, 0 КГц
    Частота кадров : 31, 250 кадров/сек (1536 spf)
    Битовая глубина : 16 бит
    Метод сжатия : С потерями
    Размер потока : 66, 8 Мбайт (0%)
    Заголовок : MVO
    Язык : Russian
    Default : Да
    Forced : Нет
    Аудио #2
    Идентификатор : 3
    Формат : AC-3
    Формат/Информация : Audio Coding 3
    Расширение режима : CM (complete main)
    Параметр Endianness формата : Big
    Идентификатор кодека : A_AC3
    Продолжительность : 1 ч. 12 м.
    Вид битрейта : Постоянный
    Битрейт : 128 Кбит/сек
    Каналы : 2 канала
    Расположение каналов : Front: L R
    Частота : 48, 0 КГц
    Частота кадров : 31, 250 кадров/сек (1536 spf)
    Битовая глубина : 16 бит
    Метод сжатия : С потерями
    Размер потока : 66, 8 Мбайт (0%)
    Заголовок : AVO @ П. Карцев
    Язык : Russian
    Default : Нет
    Forced : Нет
    Аудио #3
    Идентификатор : 4
    Формат : DTS
    Формат/Информация : Digital Theater Systems
    Профиль формата : MA/Core
    Режим : 16
    Параметр Endianness формата : Big
    Идентификатор кодека : A_DTS
    Продолжительность : 1 ч. 12 м.
    Вид битрейта : Переменный/Постоянный
    Битрейт : 655 Кбит/сек/255 Кбит/сек
    Каналы : 1 канал
    Расположение каналов : Front: C
    Частота : 48, 0 КГц
    Частота кадров : 93, 750 кадра/сек (512 spf)
    Битовая глубина : 24 бит
    Метод сжатия : Без потерь/Lossy
    Размер потока : 342 Мбайт (2%)
    Заголовок : Original
    Язык : English
    Default : Нет
    Forced : Нет
    Аудио #4
    Идентификатор : 5
    Формат : AC-3
    Формат/Информация : Audio Coding 3
    Расширение режима : CM (complete main)
    Параметр Endianness формата : Big
    Идентификатор кодека : A_AC3
    Продолжительность : 1 ч. 12 м.
    Вид битрейта : Постоянный
    Битрейт : 192 Кбит/сек
    Каналы : 2 канала
    Расположение каналов : Front: L R
    Частота : 48, 0 КГц
    Частота кадров : 31, 250 кадров/сек (1536 spf)
    Битовая глубина : 16 бит
    Метод сжатия : С потерями
    Размер потока : 100 Мбайт (1%)
    Заголовок : Comments
    Язык : English
    Default : Нет
    Forced : Нет
    Текст #1
    Идентификатор : 6
    Формат : UTF-8
    Идентификатор кодека : S_TEXT/UTF8
    Идентификатор кодека/Информация : UTF-8 Plain Text
    Продолжительность : 1 ч. 10 м.
    Битрейт : 91 бит/сек
    Count of elements : 737
    Размер потока : 46, 8 Кбайт (0%)
    Заголовок : Subtitle rus @ arsis09
    Язык : Russian
    Default : Нет
    Forced : Нет
    Текст #2
    Идентификатор : 7
    Формат : UTF-8
    Идентификатор кодека : S_TEXT/UTF8
    Идентификатор кодека/Информация : UTF-8 Plain Text
    Продолжительность : 1 ч. 10 м.
    Битрейт : 55 бит/сек
    Count of elements : 868
    Размер потока : 28, 9 Кбайт (0%)
    Заголовок : Subtitle eng SDH
    Язык : English
    Default : Нет
    Forced : Нет
    Меню
    00: 00: 00.000 : en: 1. According to Legend
    00: 09: 20.393 : en: 2. Moja Sestra?
    00: 20: 58.924 : en: 3. Little Birdie
    00: 27: 03.038 : en: 4. Dr. Judd
    00: 32: 51.970 : en: 5. Alice;s Confession
    00: 37: 57.400 : en: 6. A Moonlit Stroll
    00: 48: 20.230 : en: 7. The Deep End
    00: 56: 02.525 : en: 8. Too Late
    01: 00: 22.035 : en: 9. I Need a Drink
    01: 06: 49.422 : en: 10. Another Breed


    Онлайн видео Люди-кошки


    Размер скачиваемого торрента: 18.38 GB (19730346063 Bytes)

    Люди-кошки/Cat People (1942) BDRemux 1080р | P, A
    загрузка...
    Рейтинг →
     (голосов: 1, оценка 3/5, голосовать можно 1 раз )

    Другие торренты по теме:

  • Люди-кошки / Cat People (1942) DVDRip-AVC от Тorrent-Хzona
  • Люди-кошки / Cat People (1982) BDRip 720p | P | A скачать через торрент бесплатно
  • Люди-кошки / Cat People (1982) BDRip-AVC от NovaLan


    • Комментарии (0):

      Информация

      Информация

        Посетители, находящиеся в группе Гости, не могут оставлять комментарии в данной новости.

        ↓ Меню



        ↓ Опрос

        А Вы добавили сайт в закладки?
        Да
        Не


        Top 10 за месяц (Фильмы)