.
Авторизация | Регистрация




Высота (1957) DVDRip от New-Team скачать торрент бесплатно

Опубликовал: Админ | Дата: 11-02-2017, 11:01 | Просмотров: 0



Снималось в: СССР
Создали в: Мосфильм
Категория жанра: драма, мелодрама
Создали в: 1957
Время просмотра: 01: 28: 09
Перевод текста: Не требуется
Субтитры подготовлены: нет
Оригинальная аудиодорожка: русский
Главный режиссер: Александр Зархи

Актеры

Николай Рыбников, Инна Макарова, Геннадий Карнович-Валуа, Марианна Стриженова, Василий Макаров, Борис Ситко, Сергей Ромоданов, Елена Максимова, Лев Борисов, Леонид Чубаров, Хорен Абрамян, Владимир Поболь, Валентин Печников, Евгений Зиновьев, Михаил Воробьёв...
Об актёрах подробней
Описание:
На строительство комбината приезжает бригада монтажников-верхолазов, им предстоит осуществить монтаж домны по новому методу. Кое-кто с перепугу уезжает в командировку, а в целом предложение принято и верхолазы приступают к работе.
Фильм о непростых характерах простых советских людей, умеющих трудиться, мечтать, любить — строить большое человеческое счастье.



Источник: DVD9 R5
Качество фильма видео: DVDRip
Тип видео видео: AVI
Информация о видео: 640x480 (4: 3), 25 fps, XviD ~ 1044 kbps avg, 0.136 bit/pixel
Информация о звуке: 48 kHz, MP3 2.0, 128 kbps
Раздача от:
По одноименному роману Евгения Воробьёва

Шутливая, задорная песенка Родиона Щедрина Не кочегары мы, не плотники стала визитной карточкой фильма и одним из шлягеров конца пятидесятых.


В песне, как и в общем строе картины, отразилось мироощущение эпохи оттепели — времени надежд, оптимизма и уверенности в том, что страна идет по правильной дороге. Картина рассказывала о радости труда, о необходимой борьбе с карьеризмом и безответственностью, о творческих потенциях личности и о трудной, но обязательно счастливой любви. Сам материал — строительство металлургического комбината, работа монтажников-верхолазов — выглядит в фильме вполне киногенично. Простые люди оказываются значительными благодаря точному выбору исполнителей, их самобытности и мастерству. Инна Макарова в роли Кати создала характер яркий, личность незаурядную. Ее героине предстоит победить вульгарность, перестать быть просто сорванцом, бросить пить и курить, как того требовал один из основных сюжетов советского кино. Актриса выполнила задачу с блеском, что позволило автору романа Е. Воробьеву признать ее своим соавтором. Николай Рыбников , уже полюбившийся зрителям по фильмам Весна на Заречной улице и Чужая родня, нашел новые краски в обрисовке образа современника: юмористическое и романтическое в его исполнении встретились и взаимно обогатили друг друга. Николай Пасечник способен творить чудеса — вызвать молнию, он способен изумиться, увидев латиноамериканский туалет любимой. Встреча двух людей отважной профессии заставляет их по-новому взглянуть на себя: Пасечнику, избалованному почетом и уважением, легкими победами на любовном фронте — узнать сопротивление другого, Кате — переломить себя ради счастья в любви. Все это происходит на фоне перипетий строительства, где талантливый прораб Токмаков (Геннадий Карнович-Валуа) пытается внедрить новые идеи, а начальник монтажного управления Дерябин (Василий Макаров) боится рисковать. И конечно именно Пасечнику выпадает честь доказать правоту друга-прораба и совершить подвиг. И конечно, он еще хочет проявить инициативу — водрузить на построенной домне флаг, чуточку позируя перед любимой девушкой. А потом - падение с высоты и тяжелые травмы. Встреча в больнице разрешает все проблемы. Героев связывает не только работа и любовь, но и воспоминания о детстве.
Все натурные съемки проводились в Днепродзержинске.

MediaInfo

Общее
Полное имя : Vysota.1957.DVDRip-745_New-team_by_AVP_Studio.avi
Формат : AVI
Формат/Информация : Audio Video Interleave
Размер файла : 745 Мбайт
Продолжительность : 1 ч. 28 м.
Общий поток : 1181 Кбит/сек
Программа кодирования : VirtualDubMod 1.5.10.3 | www.virtualdub-fr.org || (build 2550/release)
Библиотека кодирования : VirtualDubMod build 2550/release
Видео
Идентификатор : 0
Формат : MPEG-4 Visual
Профиль формата : Advanced Simple@L5
Параметр BVOP формата : 1
Параметр QPel формата : Нет
Параметр GMC формата : Без точки перехода
Параметр матрицы формата : Выборочная
Идентификатор кодека : XVID
Идентификатор кодека/Подсказка : XviD
Продолжительность : 1 ч. 28 м.
Битрейт : 1044 Кбит/сек
Ширина : 640 пикселей
Высота : 480 пикселей
Соотношение сторон : 4: 3
Частота кадров : 25, 000 кадров/сек
Цветовое пространство : YUV
Субдискретизация насыщенности : 4: 2: 0
Битовая глубина : 8 бит
Тип развёртки : Прогрессивная
Метод сжатия : С потерями
Бит/(Пиксели*Кадры) : 0.136
Размер потока : 658 Мбайт (88%)
Библиотека кодирования : XviD 73
Аудио
Идентификатор : 1
Формат : MPEG Audio
Версия формата : Version 1
Профиль формата : Layer 3
Идентификатор кодека : 55
Идентификатор кодека/Подсказка : MP3
Продолжительность : 1 ч. 28 м.
Вид битрейта : Постоянный
Битрейт : 128 Кбит/сек
Каналы : 2 канала
Частота : 48, 0 КГц
Метод сжатия : С потерями
Размер потока : 80, 7 Мбайт (11%)
Выравнивание : Соединение по промежуткам
Продолжительность промежутка : 40 мс. (1, 00 видеокадр)
Время предзагрузки промежутка : 504 мс.
Библиотека кодирования : LAME3.99r
Залил: AVPStudio

Онлайн видео Высота (1957) DVDRip от New


Размер скачиваемого торрента: 744.86 MB (781039616 Bytes)


Высота (1957) DVDRip от New-Team
загрузка...
Рейтинг →
 (голосов: 1, оценка 3/5, голосовать можно 1 раз )

Другие торренты по теме:



    Комментарии (0):

    Информация

    Информация

      Посетители, находящиеся в группе Гости, не могут оставлять комментарии в данной новости.

      ↓ Меню



      ↓ Опрос

      А Вы добавили сайт в закладки?
      Да
      Не


      Top 10 за неделю (Фильмы)