.
Авторизация | Регистрация
» » Пространство / The Expanse (2017) WEBRip 720p | OmskBird скачать торрент бесплатно




    Пространство / The Expanse (2017) WEBRip 720p | OmskBird скачать торрент бесплатно

    Опубликовал: Админ | Дата: 11-02-2017, 11:01 | Просмотров: 0



    Детально о кино
    Русское название: Пространство
    Русское название в мировом прокате: The Expanse
    Создали в: 2017
    Категория жанра: Фантастика, детектив
    Главный режиссер: Роберт Либерман, Терри МакДонаф, Джефф Вулнаф

    Актеры
    Томас Джейн, Стивен Стрейт, Кэс Анвар, Доминик Типпер, Уэс Чэтэм, Шохре Агдашлу, Афина Карканис, Чад Л. Коулмэн, Дрю Кэрримор, Илайс Туфексис, Паоло Костанзо, Флоренс Ванида Фэйвр, Джей Эрнандес, Джейн Моффат, Шон Дойл, Джаред Харрис, Россиф Сазерленд, Джонатан Бэнкс

    Сюжет фильма

    Через двести лет от дня сегодняшнего некий сыщик, привыкший всё доводить до конца при любых обстоятельствах, в рамках расследования дела об исчезновении молодой женщины оказывается на борту звездолета, капитан которого решает помочь детективу в его непростом деле. Величайший заговор в истории человечества гарантируется, как и его непременное раскрытие.

    Снималось в: США, Alcon Entertainment, Sean Daniel Company
    Время просмотра: ~ 00: 45: 00 серия
    Перевод текста: Любительский (многоголосый закадровый) |OMSKBIRD records
    Файл
    Кодек для видео: MPEG-4 AVC/H.264
    Качество фильма: WEBRip720p
    Информация о видео: 1280x720 (16: 9), 23.976 fps, ~3000 kbps, 0.134 bit/pixel
    Информация о звуке:
    Информация о звуке rus: AAC, 48 kHz, 2 ch, 192 Kbps |OmskBird
    Субтитры: отсутствуют
    Реклама: присутствует
    Семпл
    Релиз:

    Релиз: OmskBird
    Перевод: Никита Коваль
    Роли озвучивали: Павел Ярощик, Алексей Гнеушев, Ольга Федорова
    Звукорежиссер: Павел Квентов
    Постер: Ксения Просветова
    MediaInfo:

    General
    Complete name : G: FilmsThe.Expanse.S02.720p.OmskBirdThe.Expanse.S02E01.720p.WEB-DLRip.OmskBird.mp4
    Format : MPEG-4
    Format profile : Base Media/Version 2
    Codec ID : mp42 (mp42/mp41)
    File size : 989 MiB
    Duration : 43mn 56s
    Overall bit rate mode : Variable
    Overall bit rate : 3 147 Kbps
    Encoded date : UTC 2017-02-03 09: 57: 15
    Tagged date : UTC 2017-02-03 09: 57: 22
    ©TIM : 00: 00: 00: 00
    ©TSC : 24000
    ©TSZ : 1001
    Video
    ID : 1
    Format : AVC
    Format/Info : Advanced Video Codec
    Format profile : Main@L3.2
    Format settings, CABAC : Yes
    Format settings, ReFrames : 3 frames
    Codec ID : avc1
    Codec ID/Info : Advanced Video Coding
    Duration : 43mn 56s
    Source duration : 43mn 56s
    Bit rate : 2 954 Kbps
    Width : 1 280 pixels
    Height : 720 pixels
    Display aspect ratio : 16: 9
    Frame rate mode : Constant
    Frame rate : 23.976 (24000/1001) fps
    Standard : PAL
    Color space : YUV
    Chroma subsampling : 4: 2: 0
    Bit depth : 8 bits
    Scan type : Progressive
    Bits/(Pixel*Frame) : 0.134
    Stream size : 929 MiB (94%)
    Source stream size : 929 MiB (94%)
    Language : English
    Encoded date : UTC 2017-02-03 09: 57: 15
    Tagged date : UTC 2017-02-03 09: 57: 15
    Color range : Limited
    Color primaries : BT.709
    Transfer characteristics : BT.709
    Matrix coefficients : BT.709
    Audio
    ID : 2
    Format : AAC
    Format/Info : Advanced Audio Codec
    Format profile : LC
    Codec ID : 40
    Duration : 43mn 56s
    Source duration : 43mn 57s
    Bit rate mode : Variable
    Bit rate : 192 Kbps
    Maximum bit rate : 297 Kbps
    Channel(s) : 2 channels
    Channel positions : Front: L R
    Sampling rate : 48.0 KHz
    Frame rate : 46.875 fps (1024 spf)
    Compression mode : Lossy
    Stream size : 59.5 MiB (6%)
    Source stream size : 59.5 MiB (6%)
    Language : English
    Encoded date : UTC 2017-02-03 09: 57: 15
    Tagged date : UTC 2017-02-03 09: 57: 15
    Скриншоты


    Внимание! Раздача ведётся путём добавления новых серий.

    color=brown
    Внимание! Раздача ведётся путём добавления новых серий; при каждом добавлении создётся новый торрент. Чтобы начать докачку новой серии, пользователям необходимо сделать следующее:
    Остановить скачивание.
    Удалить старый торрент у себя из клиента (старые серии удалять не надо).
    Скачать новый торрент и запустить его у себя в клиенте вместо старого, при этом указать клиенту путь в старую папку куда и должно происходить скачивание новых серий.
    Ваш клиент при этом должен произвести хеширование (проверку) старой папки (если не производит сам - помогите ему сделать это), и будет докачивать только те серии которых у вас ещё нет. Старые серии при этом не удаляются, а продолжают раздаваться!
    Eсли вы уже удалили старые серии, то предотвратить повторную закачку старых серий можно, отжав галочку в соответсвующих местах при запуске нового торрента. По возможности, желательно не удалять старые серии как можно дольше чтобы релизёр не столько продолжал раздавать старые серии, а смог сконцентрироваться на новых.

    Релиз подготовил: OmskBird
    Залил: skyn s61

    Онлайн видео Пространство


    Размер скачиваемого торрента: 2.81 GB (3021387494 Bytes)

    Пространство/The Expanse (2017) WEBRip 720p | OmskBird
    загрузка...
    Рейтинг →
     (голосов: 1, оценка 4/5, голосовать можно 1 раз )

    Другие торренты по теме:

  • Пространство / The Expanse (2015) HDTVRip | Sunshine Studio скачать торрент бесплатно
  • Пространство (1 сезон: 1 серия из 10) / The Expanse / 2015 / ЛД (Sunshine Studio) / HDTVRip (720p) скачать торрент бесплатно
  • Пространство (1 сезон: 1 серия из 10) / The Expanse / 2015 / ПМ (Baibako) / WEB-DLRip скачать торрент бесплатно
  • Пространство (Экспансия) (1 сезон: 1 серия из 10) / The Expanse / 2015 / ЛМ (HamsterStudio) / WEB-DL (1080p) скачать торрент бесплатно
  • Пространство / Экспансия / The Expanse (2015) WEB-DLRip-AVC от qqss44 | LostFilm скачать торрент бесплатно
  • Пространство / The Expanse (2015-2016) WEB-DL 1080p | LostFilm скачать торрент бесплатно
  • Пространство / The Expanse (2015) WEB-DLRip 720р | ViruseProject скачать торрент бесплатно
  • Пространство / The Expanse (2015) WEB-DL 720p | Gears Media скачать торрент бесплатно


    • Комментарии (0):

      Информация

      Информация

        Посетители, находящиеся в группе Гости, не могут оставлять комментарии в данной новости.

        ↓ Меню



        ↓ Опрос

        А Вы добавили сайт в закладки?
        Да
        Не


        Top 10 за неделю (Фильмы)

        Ёлки 5 (2016) WEB-DLRip скачать торрент бесплатно

        (просмотров: 2481)
        Разрушение / Demolition (2015) BDRemux 1080p от ExKinoRay | L скачать торрент бесплатно

        (просмотров: 1111)
        Мой парень – киллер / Mr. Right (2015) WEB-DL 1080p | L скачать торрент бесплатно

        (просмотров: 1051)
        Экипаж (2016) BDRip от New-Team | D | Лицензия скачать торрент бесплатно
        АНОНСЫ МОИХ РАЗДАЧ
        (просмотров: 901)
        Экипаж (2016) BDRip от New-Team | D | Лицензия скачать торрент бесплатно
        АНОНСЫ МОИХ РАЗДАЧ
        (просмотров: 901)
        Гений / Genius (2016) WEB-DLRip 1080p | Звук TS скачать торрент бесплатно

        (просмотров: 891)
        Демон внутри / Вскрытие Джейн Доу / The Autopsy of Jane Doe (2016) WEB-DLRip от Scarabey | P скачать торрент бесплатно
        Мы В КОНТАКТЕ =)
        (просмотров: 811)
        Кухня (1-5 сезоны: 1-100 серии из 100 + 2 бонуса) / 2012-2015 / РУ / DVDRip, WEB-DLRip скачать торрент бесплатно

        (просмотров: 811)
        Бригада (2002) HDDVDRip-AVC от TORRENT-45

        (просмотров: 811)
        Равные / Equals (2015) WEB-DLRip | L2 скачать торрент бесплатно

        (просмотров: 811)