.
Авторизация | Регистрация
Хочешь лучшие торренты? Добавь свой email!
Добавить
» » Человек на Кэррион-роуд / The Hollow Point (2016) BDRip 1080p от ExKinoRay | A торрент скачать бесплатно




    Человек на Кэррион-роуд / The Hollow Point (2016) BDRip 1080p от ExKinoRay | A торрент скачать бесплатно

    Опубликовал: Админ | Дата: 12-02-2017, 11:00 | Просмотров: 0



    Детально о кино
    Русское название: Человек на Кэррион-роуд
    Русское название в мировом прокате: The Hollow Point
    Создали в: 2016
    Категория жанра: Криминал, триллер
    Главный режиссер: Гонсало Лопес-Гальего

    Актеры
    Линн Коллинз, Джон Легуизамо, Патрик Уилсон, Иэн МакШейн, Джеймс Белуши, Дэвид Стивенс, Нэйтан Стивенс, Майкл Флинн, Хезер Бирс, Дебора Ли Дуглас
    О фильме:
    Офицер Уоллис вернулся в свой родной город, чтобы стать шерифом. Только город этот находится на границе с Мексикой и активно снабжает мексиканские картели бронебойными патронами. Бывший друг Уоллиса, занимался контрабандой и решил выйти из дела. За это он попал в некий список и по его следу идет наемник по кличке мясник. Все бы ничего, но в этот список попадает и бывшая девушка нашего героя...

    Снималось в: США
    Киностудия: Atlas Independent
    Время просмотра: 01: 37: 10
    Перевод текста: Авторский | Михаил Чадов
    Файл
    Качество фильма: BDRip 1080p
    Информация о видео: MPEG-4 AVC, 1920x800, 14.0 Mbit/s, 23.976 fps
    Информация о звуке:
    Информация о звуке #01: 48 kHz, DTS, 5.1, 1510 Kbps | Авторский |
    Информация о звуке #02: 48 kHz, AC3, 5.1, 448 Kbps | Авторский |
    Информация о звуке #03: 48 kHz, DTS, 5.1, 1510 kbps | Оригинал |
    Субтитры: Русские, английские
    MI
    General
    Unique ID : 181125891143603728115764199907523860275 (0x884393E724E32463B580876835449733)
    Complete name : G: VideoThe.Hollow.Point.2016.AVO.BDRip.1080p.ExKinoRay.mkv
    Format : Matroska
    Format version : Version 4/Version 2
    File size : 11.9 GiB
    Duration : 1 h 37 min
    Overall bit rate : 17.5 Mb/s
    Encoded date : UTC 2017-02-11 22: 37: 51
    Writing application : mkvmerge v8.3.0 (;Over the Horizon;) 64bit
    Writing library : libebml v1.3.1 + libmatroska v1.4.2
    Video
    ID : 1
    Format : AVC
    Format/Info : Advanced Video Codec
    Format profile : High@L4
    Format settings, CABAC : Yes
    Format settings, ReFrames : 5 frames
    Codec ID : V_MPEG4/ISO/AVC
    Duration : 1 h 37 min
    Bit rate : 14.0 Mb/s
    Width : 1 920 pixels
    Height : 800 pixels
    Display aspect ratio : 2.40: 1
    Frame rate mode : Constant
    Frame rate : 23.976 (24000/1001) FPS
    Color space : YUV
    Chroma subsampling : 4: 2: 0
    Bit depth : 8 bits
    Scan type : Progressive
    Bits/(Pixel*Frame) : 0.380
    Stream size : 9.50 GiB (80%)
    Writing library : x264 core 142 r2431+42 c69a006 tMod 8-bit@all X86_64
    Encoding settings : cabac=1/ref=5/deblock=1: -3: -3/analyse=0x3: 0x113/me=umh/subme=11/psy=1/fade_compensate=0.00/psy_rd=1.08: 1.08/mixed_ref=1/me_range=48/chroma_me=1/trellis=2/8x8dct=1/cqm=0/deadzone=21, 11/fast_pskip=0/chroma_qp_offset=-4/threads=16/lookahead_threads=2/sliced_threads=0/nr=0/decimate=0/interlaced=0/bluray_compat=0/constrained_intra=0/fgo=0/bframes=8/b_pyramid=2/b_adapt=2/b_bias=0/direct=3/weightb=1/open_gop=0/weightp=2/keyint=240/keyint_min=23/scenecut=40/intra_refresh=0/rc_lookahead=150/rc=2pass/mbtree=0/bitrate=14000/ratetol=1.0/qcomp=0.70/qpmin=0: 0: 0/qpmax=69: 69: 69/qpstep=4/cplxblur=20.0/qblur=0.5/vbv_maxrate=25000/vbv_bufsize=31250/nal_hrd=none/filler=0/ip_ratio=1.30/pb_ratio=1.20/aq=2: 0.80/aq-sensitivity=10.00/aq-factor=1.00: 1.00: 1.00/aq2=0/aq3=0
    Language : English
    Default : Yes
    Forced : No
    Color range : Limited
    Color primaries : BT.709
    Transfer characteristics : BT.709
    Matrix coefficients : BT.709
    Audio #1
    ID : 2
    Format : DTS
    Format/Info : Digital Theater Systems
    Mode : 16
    Format settings, Endianness : Big
    Codec ID : A_DTS
    Duration : 1 h 37 min
    Bit rate mode : Constant
    Bit rate : 1 509 kb/s
    Channel(s) : 6 channels
    Channel positions : Front: L C R, Side: L R, LFE
    Sampling rate : 48.0 kHz
    Frame rate : 93.750 FPS (512 spf)
    Bit depth : 16 bits
    Compression mode : Lossy
    Stream size : 1.02 GiB (9%)
    Title : AVO-DTS М.Чадов по переводу Perevodman
    Language : Russian
    Default : Yes
    Forced : No
    Audio #2
    ID : 3
    Format : AC-3
    Format/Info : Audio Coding 3
    Mode extension : CM (complete main)
    Format settings, Endianness : Big
    Codec ID : A_AC3
    Duration : 1 h 37 min
    Bit rate mode : Constant
    Bit rate : 448 kb/s
    Channel(s) : 6 channels
    Channel positions : Front: L C R, Side: L R, LFE
    Sampling rate : 48.0 kHz
    Frame rate : 31.250 FPS (1536 spf)
    Bit depth : 16 bits
    Compression mode : Lossy
    Stream size : 311 MiB (3%)
    Title : AVO-AC3 М.Чадов по переводу Perevodman
    Language : Russian
    Default : No
    Forced : No
    Audio #3
    ID : 4
    Format : DTS
    Format/Info : Digital Theater Systems
    Mode : 16
    Format settings, Endianness : Big
    Codec ID : A_DTS
    Duration : 1 h 37 min
    Bit rate mode : Constant
    Bit rate : 1 509 kb/s
    Channel(s) : 6 channels
    Channel positions : Front: L C R, Side: L R, LFE
    Sampling rate : 48.0 kHz
    Frame rate : 93.750 FPS (512 spf)
    Bit depth : 16 bits
    Compression mode : Lossy
    Stream size : 1.02 GiB (9%)
    Title : Original
    Language : English
    Default : No
    Forced : No
    Text #1
    ID : 5
    Format : UTF-8
    Codec ID : S_TEXT/UTF8
    Codec ID/Info : UTF-8 Plain Text
    Duration : 1 h 33 min
    Bit rate : 62 b/s
    Count of elements : 1003
    Stream size : 42.7 KiB (0%)
    Title : Full Перевод от Perevodman
    Language : Russian
    Default : No
    Forced : No
    Text #2
    ID : 6
    Format : UTF-8
    Codec ID : S_TEXT/UTF8
    Codec ID/Info : UTF-8 Plain Text
    Duration : 1 h 33 min
    Bit rate : 42 b/s
    Count of elements : 1085
    Stream size : 28.7 KiB (0%)
    Title : Full
    Language : English
    Default : No
    Forced : No
    Menu
    00: 00: 00.000 : en: 00: 00: 00.000
    00: 14: 30.036 : en: 00: 14: 30.036
    00: 34: 53.925 : en: 00: 34: 53.925
    00: 55: 06.929 : en: 00: 55: 06.929
    01: 12: 05.279 : en: 01: 12: 05.279
    01: 28: 29.888 : en: 01: 28: 29.888


    Релиз подготовил: Автор релиза:

    Онлайн видео Человек на Кэррион-роуд


    Размер скачиваемого торрента: 11.85 GB (12725392760 Bytes)

    Человек на Кэррион-роуд/The Hollow Point (2016) BDRip 1080p от ExKinoRay | A
    загрузка...
    Рейтинг →
     (голосов: 1, оценка 3/5, голосовать можно 1 раз )

    Другие торренты по теме:



      Комментарии (0):

      Информация

      Информация

        Посетители, находящиеся в группе Гости, не могут оставлять комментарии в данной новости.

        ↓ Меню



        ↓ Опрос

        А Вы добавили сайт в закладки?
        Да
        Не


        Top 10 за месяц (Фильмы)