.
Авторизация | Регистрация
» » Затаившись / Спрятанные / Hidden (2015) WEB-DLRip-AVC | ViruseProject скачать торрент бесплатно




    Затаившись / Спрятанные / Hidden (2015) WEB-DLRip-AVC | ViruseProject скачать торрент бесплатно

    Опубликовал: Админ | Дата: 12-02-2017, 11:00 | Просмотров: 0



    Создали в: США/Primal Pictures (II), Warner Bros. Pictures
    Категория жанра: Ужасы, Триллер
    Время просмотра: 01: 23: 13
    Перевод текста: Профессиональный (многоголосый, закадровый)ViruseProject
    Субтитры: Русский, английский
    Главный режиссер: Мэтт Даффер, Росс Даффер
    Актеры: Александр Скарсгард, Андреа Райзборо, Эмили Элин Линд, Хезер Дорксен, Уильям Энскау

    Описание фильма

    Рэй, Клэр и их семилетняя дочь Зои — обычная американская семья, живущая в Кингсвилле, Северная Каролина, — вот только живут они в бомбоубежище с тех самых пор, как наступил конец света, который изменил все. За 301 день они превратили свою бетонную темницу в дом, держась за воспоминания о прошлом и надеясь когда-нибудь вернуться к нормальной жизни. 301 день им удавалось избегать того, что обитает на поверхности, — тяжелое дыхание, грохочущие шаги, раздающиеся в ночи, внушают страх находящимся в хрупком убежище. Все это время семье удавалось оставаться незамеченной. До сих пор. Сейчас их безопасность под угрозой… и нечто идет за ними.

    Релиз подготовил: K.E.N
    Качество фильма видео: WEB-DLRip-AVC
    Информация о видео: AVC, 1024x426 (2.40: 1), 23.976 fps, 2 119 Kbps (0.203 bit/pixel)
    Информация о звуке: AC-3, 48.0 KHz, 2 ch, 384 Kbps, CBR (Russian)
    Mediainfo:
    Формат : Matroska
    Версия формата : Version 2
    Размер файла : 1, 45 Гбайт
    Продолжительность : 1 ч. 23 м.
    Общий поток : 2501 Кбит/сек
    Название фильма : Hidden.2015
    Дата кодирования : UTC 2017-02-10 15: 08: 38
    Программа кодирования : mkvmerge v5.3.0 (;I could have danced;) built on Feb 9 2012 10: 38: 07
    Библиотека кодирования : libebml v1.2.3 + libmatroska v1.3.0
    Attachments : poster (4).jpg
    Видео
    Идентификатор : 1
    Формат : AVC
    Формат/Информация : Advanced Video Codec
    Профиль формата : High@L4.1
    Параметр CABAC формата : Да
    Параметр ReFrames формата : 12 кадров
    Идентификатор кодека : V_MPEG4/ISO/AVC
    Продолжительность : 1 ч. 23 м.
    Битрейт : 2119 Кбит/сек
    Ширина : 1024 пикселя
    Высота : 426 пикселей
    Соотношение сторон : 2, 40: 1
    Режим частоты кадров : Постоянный
    Частота кадров : 23, 976 (24000/1001) кадра/сек
    Цветовое пространство : YUV
    Субдискретизация насыщенности : 4: 2: 0
    Битовая глубина : 8 бит
    Тип развёртки : Прогрессивная
    Бит/(Пиксели*Кадры) : 0.203
    Размер потока : 1, 20 Гбайт (83%)
    Библиотека кодирования : x264 core 146 r2538 121396c
    Настройки программы : cabac=1/ref=12/deblock=1: -2: -1/analyse=0x3: 0x133/me=umh/subme=10/psy=1/psy_rd=1.05: 0.15/mixed_ref=1/me_range=32/chroma_me=1/trellis=2/8x8dct=1/cqm=0/deadzone=21, 11/fast_pskip=0/chroma_qp_offset=-3/threads=12/lookahead_threads=2/sliced_threads=0/nr=0/decimate=1/interlaced=0/bluray_compat=0/constrained_intra=0/bframes=8/b_pyramid=2/b_adapt=2/b_bias=0/direct=3/weightb=1/open_gop=0/weightp=2/keyint=240/keyint_min=23/scenecut=40/intra_refresh=0/rc=2pass/mbtree=0/bitrate=2119/ratetol=1.0/qcomp=0.60/qpmin=0/qpmax=69/qpstep=4/cplxblur=20.0/qblur=0.5/ip_ratio=1.40/pb_ratio=1.30/aq=2: 1.00
    Default : Да
    Forced : Нет
    Аудио
    Идентификатор : 2
    Формат : AC-3
    Формат/Информация : Audio Coding 3
    Расширение режима : CM (complete main)
    Параметр Endianness формата : Big
    Идентификатор кодека : A_AC3
    Продолжительность : 1 ч. 23 м.
    Вид битрейта : Постоянный
    Битрейт : 384 Кбит/сек
    Каналы : 2 канала
    Расположение каналов : Front: L R
    Частота : 48, 0 КГц
    Частота кадров : 31, 250 кадров/сек (1536 spf)
    Битовая глубина : 16 бит
    Метод сжатия : С потерями
    Размер потока : 228 Мбайт (15%)
    Заголовок : ViruseProject
    Язык : Russian
    Default : Да
    Forced : Нет
    Текст #1
    Идентификатор : 3
    Формат : UTF-8
    Идентификатор кодека : S_TEXT/UTF8
    Идентификатор кодека/Информация : UTF-8 Plain Text
    Заголовок : ViruseProject
    Язык : Russian
    Default : Нет
    Forced : Нет
    Текст #2
    Идентификатор : 4
    Формат : UTF-8
    Идентификатор кодека : S_TEXT/UTF8
    Идентификатор кодека/Информация : UTF-8 Plain Text
    Заголовок : org
    Язык : English
    Default : Нет
    Forced : Нет

    Скриншоты:


    Онлайн видео Затаившись


    Размер скачиваемого торрента: 1.45 GB (1560688517 Bytes)

    Затаившись/Спрятанные/Hidden (2015) WEB-DLRip-AVC | ViruseProject
    загрузка...
    Рейтинг →
     (голосов: 1, оценка 5/5, голосовать можно 1 раз )

    Другие торренты по теме:

  • Затаившись / Спрятанные / Hidden (2015) WEB-DLRip | ViruseProject скачать торрент бесплатно
  • Затаившись / Спрятанные / Hidden (2014) WEB-DLRip от Scarabey | L скачать торрент бесплатно
  • Затаившись / Спрятанные / Hidden (2015) WEB-DLRip от Portablius | ViruseProject скачать торрент бесплатно


    • Комментарии (0):

      Информация

      Информация

        Посетители, находящиеся в группе Гости, не могут оставлять комментарии в данной новости.

        ↓ Меню



        ↓ Опрос

        А Вы добавили сайт в закладки?
        Да
        Не


        Top 10 за неделю (Фильмы)