.
Авторизация | Регистрация
» » Из-под земли / Unearthed (2007) HDRip от Portablius | P скачать торрент бесплатно




    Из-под земли / Unearthed (2007) HDRip от Portablius | P скачать торрент бесплатно

    Опубликовал: Админ | Дата: 12-02-2017, 11:00 | Просмотров: 0



    Детально о кино
    Русское название: Из-под земли
    Русское название в мировом прокате: Unearthed
    Создали в: 2007
    Категория жанра: ужасы, триллер
    Главный режиссер: Мэттью Льютуайлер

    Актеры
    Люк Госс, Дебора Оффнер, Марк Келли, Рассел Минс, Тонанцин Кармело, Чарльз Мёрфи, Эммануэль Вожье, М. К. Гейни, Крис Эндрю Кулла

    Сюжет фильма
    Во время раскопок в Нью-Мехико археологи пробуждают ото сна отвратительное чудовище. Эта инопланетная тварь пролежала там почти тысячу лет! Разъяренный монстр уничтожает все живое, что попадется на его пути. Местная женщина-шериф, в последнее время часто злоупотребляет алкоголем. Поэтому ей хватает и своих демонов! Но именно ей выпала участь возглавить отряд бойцов, которые пытаются уничтожить это исчадие ада.

    Снималось в: США
    Киностудия: Ambush Entertainment, Cold Iron Pictures, Combustion Studios
    Время просмотра: 01: 33: 44
    Перевод текста: Профессиональный (многоголосый, закадровый)
    Субтитры: Нет
    Семпл
    Файл
    Кодек для видео: XviD
    Качество фильма: HDRip
    Информация о видео: 704x288 (2.44: 1), 24 fps, XviD build 73 ~909 kbps avg, 0.19 bit/pixel
    Информация о звуке: 48 kHz, MPEG Layer 3, 2 ch, ~128.00 kbps avg
    MediaInfo
    Общее
    Полное имя : Unearthed.2007.HDRip.ot.Portablius.avi
    Формат : AVI
    Формат/Информация : Audio Video Interleave
    Размер файла : 698 Мбайт
    Продолжительность : 1 ч. 33 м.
    Общий поток : 1047 Кбит/сек
    Программа кодирования : VirtualDubMod 1.5.10.3 | www.virtualdub-fr.org || (build 2550/release)
    Библиотека кодирования : VirtualDub build 35491/release
    Видео
    Идентификатор : 0
    Формат : MPEG-4 Visual
    Профиль формата : Advanced Simple@L5
    Параметр BVOP формата : 1
    Параметр QPel формата : Нет
    Параметр GMC формата : Без точки перехода
    Параметр матрицы формата : Выборочная
    Идентификатор кодека : XVID
    Идентификатор кодека/Подсказка : XviD
    Продолжительность : 1 ч. 33 м.
    Битрейт : 910 Кбит/сек
    Ширина : 704 пикселя
    Высота : 288 пикселей
    Соотношение сторон : 2, 40: 1
    Частота кадров : 24, 000 кадра/сек
    Цветовое пространство : YUV
    Субдискретизация насыщенности : 4: 2: 0
    Битовая глубина : 8 бит
    Тип развёртки : Прогрессивная
    Метод сжатия : С потерями
    Бит/(Пиксели*Кадры) : 0.187
    Размер потока : 606 Мбайт (87%)
    Библиотека кодирования : XviD 73
    Аудио
    Идентификатор : 1
    Формат : MPEG Audio
    Версия формата : Version 1
    Профиль формата : Layer 3
    Идентификатор кодека : 55
    Идентификатор кодека/Подсказка : MP3
    Продолжительность : 1 ч. 33 м.
    Вид битрейта : Постоянный
    Битрейт : 128 Кбит/сек
    Каналы : 2 канала
    Частота : 48, 0 КГц
    Метод сжатия : С потерями
    Размер потока : 85, 2 Мбайт (12%)
    Выравнивание : Соединение по промежуткам
    Продолжительность промежутка : 42 мс. (1, 00 видеокадр)
    Время предзагрузки промежутка : 504 мс.
    Библиотека кодирования : LAME3.99r
    Залил: Evgen Portable

    Онлайн видео Из-под земли


    Размер скачиваемого торрента: 697.53 MB (731416402 Bytes)


    Из-под земли/Unearthed (2007) HDRip от Portablius | P
    загрузка...
    Рейтинг →
     (голосов: 1, оценка 5/5, голосовать можно 1 раз )

    Другие торренты по теме:

  • Из под земли / Unearthed (2007) BDRip торрент скачать бесплатно
  • Тайные знаки. Странные явления. Что ждет вас под землей (2011) SATRip от Generalfilm торрент скачать бесплатно
  • Под землей / Beneath (2013) WEB-DLRip | L1 скачать через торрент бесплатно
  • Из-под земли / Unearthed (2007) BDRip 1080p | P скачать торрент бесплатно
  • К 70-летию победы под Сталинградом. За Волгой для нас земли нет! (2013) SATRip от VEGA-Tracker торрент скачать бесплатно


    • Комментарии (0):

      Информация

      Информация

        Посетители, находящиеся в группе Гости, не могут оставлять комментарии в данной новости.

        ↓ Меню



        ↓ Опрос

        А Вы добавили сайт в закладки?
        Да
        Не


        Top 10 за неделю (Фильмы)

        Мой парень – киллер / Mr. Right (2015) WEB-DL 1080p | L скачать торрент бесплатно

        (просмотров: 331)
        Ёлки 5 (2016) WEB-DLRip скачать торрент бесплатно

        (просмотров: 331)
        Разрушение / Demolition (2015) BDRemux 1080p от ExKinoRay | L скачать торрент бесплатно

        (просмотров: 301)
        Экипаж (2016) BDRip от New-Team | D | Лицензия скачать торрент бесплатно
        АНОНСЫ МОИХ РАЗДАЧ
        (просмотров: 301)
        Экипаж (2016) BDRip от New-Team | D | Лицензия скачать торрент бесплатно
        АНОНСЫ МОИХ РАЗДАЧ
        (просмотров: 271)
        Гений / Genius (2016) WEB-DLRip 1080p | Звук TS скачать торрент бесплатно

        (просмотров: 161)
        Кухня (1-5 сезоны: 1-100 серии из 100 + 2 бонуса) / 2012-2015 / РУ / DVDRip, WEB-DLRip скачать торрент бесплатно

        (просмотров: 151)
        Кухня (2015) SATRip скачать торрент бесплатно
        Кухня ? Кухня (2015) SATRip скачать торрент бесплатно
        (просмотров: 141)
        Дуэлянт (2016) WEB-DLRip от Scarabey | iTunes скачать торрент бесплатно

        (просмотров: 131)
        Демон внутри / Вскрытие Джейн Доу / The Autopsy of Jane Doe (2016) WEB-DLRip от Scarabey | P скачать торрент бесплатно
        Мы В КОНТАКТЕ =)
        (просмотров: 111)