.
Авторизация | Регистрация
Хочешь лучшие торренты? Добавь свой email!
Добавить
» » Плохой Санта 2 / Bad Santa 2 (2016) BDRip 720p от New-Team | Расширенная версия | iTunes, A торрент скачать бесплатно




    Плохой Санта 2 / Bad Santa 2 (2016) BDRip 720p от New-Team | Расширенная версия | iTunes, A торрент скачать бесплатно

    Опубликовал: Админ | Дата: 12-02-2017, 11:00 | Просмотров: 0



    Детально о кино
    Русское название: Плохой Санта 2
    Русское название в мировом прокате: Bad Santa 2
    Снималось в: США
    Киностудия: Broad Green Pictures, Ingenious Media, Miramax
    Категория жанра: драма, комедия, криминал
    Создали в: 2016
    Время просмотра: 01: 34: 50
    Перевод текста: Профессиональный (дублированный) iTunes
    Перевод текста 2: Авторский (одноголосый закадровый) Дмитрий Гоблин Пучков - без цензуры
    Субтитры подготовлены: Eng
    Оригинальная аудиодорожка: английский
    Главный режиссер: Марк Уотерс/Mark Waters

    Актеры
    Билли Боб Торнтон, Кэти Бейтс, Тони Кокс, Кристина Хендрикс, Бретт Келли, Райан Хансен, Дженни Зигрино, Джефф Скоурон
    Описание: Продолжение новогодних приключений проходимца Вилли, который в канун Рождества, как всегда, переодевается в Санта-Клауса. Ограбить очередной супермаркет в этом наряде не представляет никаких проблем. Но в Рождество случаются всякие чудеса. Каким оно будет для Вилли на этот раз?
    Примечание: Расширенная версия длиннее театральной на 3 минуты! Не хватает около 2-х минут превода.

    Тип релиза: BDRip 720p
    Контейнер: MKV
    Информация о видео: MPEG-4 AVC, 4866 Кбит/с, 1280x694, 23, 976 fps
    Информация о звуке: Rus, AC3, 384 kb/s (6 ch), 48 kHz
    Информация о звуке 2: Rus, AC3, 384 kb/s (6 ch), 48 kHz
    Информация о звуке 3: Eng, AC3, 640 kb/s (6 ch), 48 kHz
    Тип видео субтитров: softsub (SRT)
    Раздача от:
    MediaInfo

    x264 info: frame I: 1611 Avg QP: 14.46 size: 124753
    x264 info: frame P: 27014 Avg QP: 15.60 size: 50425
    x264 info: frame B: 107799 Avg QP: 16.57 size: 18427
    Format : Matroska
    Format version : Version 4/Version 2
    File size : 4.24 GiB
    Duration : 1h 34mn
    Overall bit rate : 6 401 Kbps
    Movie name : Плохой Санта 2. (Tonik)
    Encoded date : UTC 2017-02-11 10: 36: 53
    Writing application : mkvmerge v7.1.0 (;Good Love;) 64bit built on Jul 27 2014 13: 06: 55
    Writing library : libebml v1.3.0 + libmatroska v1.4.1
    DURATION : 01: 34: 48.832000000
    NUMBER_OF_FRAMES : 177776
    NUMBER_OF_BYTES : 273063936
    _STATISTICS_WRITING_APP : mkvmerge v7.1.0 (;Good Love;) 64bit built on Jul 27 2014 13: 06: 55
    _STATISTICS_WRITING_DATE_UTC : 2017-02-11 10: 36: 53
    _STATISTICS_TAGS : BPS DURATION NUMBER_OF_FRAMES NUMBER_OF_BYTES
    Video
    ID : 1
    Format : AVC
    Format/Info : Advanced Video Codec
    Format profile : High@L4.1
    Format settings, CABAC : Yes
    Format settings, ReFrames : 9 frames
    Codec ID : V_MPEG4/ISO/AVC
    Duration : 1h 34mn
    Bit rate : 4 866 Kbps
    Width : 1 280 pixels
    Height : 694 pixels
    Display aspect ratio : 1.85: 1
    Frame rate mode : Constant
    Frame rate : 23.976 fps
    Color space : YUV
    Chroma subsampling : 4: 2: 0
    Bit depth : 8 bits
    Scan type : Progressive
    Bits/(Pixel*Frame) : 0.228
    Stream size : 3.22 GiB (76%)
    Writing library : x264 core 148 r2597 e86f3a1
    Encoding settings : cabac=1/ref=9/deblock=1: -3: -3/analyse=0x3: 0x133/me=umh/subme=11/psy=1/psy_rd=1.00: 0.00/mixed_ref=1/me_range=32/chroma_me=1/trellis=2/8x8dct=1/cqm=0/deadzone=21, 11/fast_pskip=0/chroma_qp_offset=-2/threads=12/lookahead_threads=3/sliced_threads=0/nr=0/decimate=0/interlaced=0/bluray_compat=0/constrained_intra=0/bframes=11/b_pyramid=2/b_adapt=2/b_bias=0/direct=3/weightb=1/open_gop=0/weightp=2/keyint=240/keyint_min=24/scenecut=40/intra_refresh=0/rc_lookahead=60/rc=crf/mbtree=0/crf=17.3/qcomp=0.70/qpmin=0/qpmax=69/qpstep=4/vbv_maxrate=40000/vbv_bufsize=30000/crf_max=0.0/nal_hrd=none/filler=0/ip_ratio=1.20/pb_ratio=1.20/aq=3: 0.85
    Language : English
    Default : Yes
    Forced : No
    _STATISTICS_WRITING_APP : mkvmerge v7.1.0 (;Good Love;) 64bit built on Jul 27 2014 13: 06: 55
    _STATISTICS_WRITING_DATE_UTC : 2017-02-11 10: 36: 53
    _STATISTICS_TAGS : BPS DURATION NUMBER_OF_FRAMES NUMBER_OF_BYTES
    DURATION : 01: 34: 50.018000000
    NUMBER_OF_FRAMES : 136424
    NUMBER_OF_BYTES : 3549606911
    Audio #1
    ID : 2
    Format : AC-3
    Format/Info : Audio Coding 3
    Mode extension : CM (complete main)
    Format settings, Endianness : Big
    Codec ID : A_AC3
    Duration : 1h 34mn
    Bit rate mode : Constant
    Bit rate : 384 Kbps
    Channel(s) : 6 channels
    Channel positions : Front: L C R, Side: L R, LFE
    Sampling rate : 48.0 KHz
    Bit depth : 16 bits
    Compression mode : Lossy
    Stream size : 260 MiB (6%)
    Title : iTunes
    Language : Russian
    Default : Yes
    Forced : No
    Audio #2
    ID : 3
    Format : AC-3
    Format/Info : Audio Coding 3
    Mode extension : CM (complete main)
    Format settings, Endianness : Big
    Codec ID : A_AC3
    Duration : 1h 34mn
    Bit rate mode : Constant
    Bit rate : 384 Kbps
    Channel(s) : 6 channels
    Channel positions : Front: L C R, Side: L R, LFE
    Sampling rate : 48.0 KHz
    Bit depth : 16 bits
    Compression mode : Lossy
    Stream size : 260 MiB (6%)
    Title : Гоблин
    Language : Russian
    Default : No
    Forced : No
    Audio #3
    ID : 4
    Format : AC-3
    Format/Info : Audio Coding 3
    Mode extension : CM (complete main)
    Format settings, Endianness : Big
    Codec ID : A_AC3
    Duration : 1h 34mn
    Bit rate mode : Constant
    Bit rate : 640 Kbps
    Channel(s) : 6 channels
    Channel positions : Front: L C R, Side: L R, LFE
    Sampling rate : 48.0 KHz
    Bit depth : 16 bits
    Compression mode : Lossy
    Stream size : 434 MiB (10%)
    Language : English
    Default : No
    Forced : No
    Text
    ID : 5
    Format : UTF-8
    Codec ID : S_TEXT/UTF8
    Codec ID/Info : UTF-8 Plain Text
    Language : English
    Default : No
    Forced : No

    Скриншоты




    Онлайн видео Плохой Санта 2


    Размер скачиваемого торрента: 4.24 GB (4552836159 Bytes)

    Плохой Санта 2/Bad Santa 2 (2016) BDRip 720p от New-Team | Расширенная версия | iTunes, A
    загрузка...
    Рейтинг →
     (голосов: 1, оценка 4/5, голосовать можно 1 раз )

    Другие торренты по теме:

  • Плохой Санта / Bad Santa (2003) BDRip-AVC от FREEISLAND
  • Дурнев 1 : Плохой Санта (2013) SATRip
  • Плохой Санта / Bad Santa (2003) BDRip от New-Team | Гоблин скачать через торрент бесплатно
  • Плохой Санта / Bad Santa (2003) BDRip-AVC | D, A | Unrated Cut скачать через торрент бесплатно
  • Плохой Санта / Bad Santa (2003) BDRip 1080p от MediaClub | D, A | Расширенная версия скачать через торрент бесплатно
  • Плохой Санта / Bad Santa (2003) BDRip-AVC от MediaClub | D, A | Расширенная версия скачать через торрент бесплатно
  • Плохой Санта / Bad Santa (2003) BDRip-AVC | D | Расширенная версия
  • Плохой Санта 2 / Bad Santa 2 (2016) TS | D


    • Комментарии (0):

      Информация

      Информация

        Посетители, находящиеся в группе Гости, не могут оставлять комментарии в данной новости.

        ↓ Меню



        ↓ Опрос

        А Вы добавили сайт в закладки?
        Да
        Не


        Top 10 за месяц (Фильмы)