.
Авторизация | Регистрация
Хочешь лучшие торренты? Добавь свой email!
Добавить




Рита (2010) DVDRip от New-Team торрент скачать бесплатно

Опубликовал: Админ | Дата: 12-02-2017, 11:01 | Просмотров: 0



Снималось в: Россия
Создали в: Кинокомпания Магнум, Мосфильм
Категория жанра: драма, мелодрама
Создали в: 2010
Время просмотра: 01: 30: 30
Перевод текста: Не требуется
Субтитры подготовлены: нет
Оригинальная аудиодорожка: русский
Главный режиссер: Олег Фесенко

Актеры

Елена Яковлева, Сергей Жигунов, Сергей Газаров, Евгения Уралова, Роман Македонский, Полина Рахленко, Георгий Токаев, Луиджи Тонэт, Ольга Демидова, Анастасия Дмитрова...
Об актёрах подробней
Описание:
Небольшой российский городок, ранняя осень. Маргарита, преподаватель физики, из-за разногласий с директором школы вынуждена оставить работу и заняться частными уроками. Именно так она знакомится с Андреем — отцом девочки, с которой ей предстоит заниматься. Между двумя одинокими людьми вспыхивают чувства, но они отчаянно сопротивляются внезапно свалившейся напасти: горький опыт прошлых разочарований не позволяет им сделать шаг навстречу друг другу. Но, как известно, любовь дается человеку свыше. Чтобы соединить влюбленных, на землю спускается ангел. Он не может выдать своего небесного происхождения и принимает образ... бомжа.



Источник: DVD9 R5
Качество фильма видео: DVDRip
Тип видео видео: AVI
Информация о видео: 704x352 (2, 000: 1), 25 fps, XviD ~ 1013 kbps avg, 0.164 bit/pixel
Информация о звуке: 48 kHz, MP3 2.0, 128 kbps
Раздача от:
MediaInfo

Общее
Полное имя : Rita.2010.DVDRip-745_New-team_by_AVP_Studio.avi
Формат : AVI
Формат/Информация : Audio Video Interleave
Размер файла : 745 Мбайт
Продолжительность : 1 ч. 30 м.
Общий поток : 1151 Кбит/сек
Программа кодирования : VirtualDubMod 1.5.10.3 | www.virtualdub-fr.org || (build 2550/release)
Библиотека кодирования : VirtualDubMod build 2550/release
Видео
Идентификатор : 0
Формат : MPEG-4 Visual
Профиль формата : Advanced Simple@L5
Параметр BVOP формата : 1
Параметр QPel формата : Нет
Параметр GMC формата : Без точки перехода
Параметр матрицы формата : Выборочная
Идентификатор кодека : XVID
Идентификатор кодека/Подсказка : XviD
Продолжительность : 1 ч. 30 м.
Битрейт : 1013 Кбит/сек
Ширина : 704 пикселя
Высота : 352 пикселя
Соотношение сторон : 2, 000
Частота кадров : 25, 000 кадров/сек
Цветовое пространство : YUV
Субдискретизация насыщенности : 4: 2: 0
Битовая глубина : 8 бит
Тип развёртки : Прогрессивная
Метод сжатия : С потерями
Бит/(Пиксели*Кадры) : 0.164
Размер потока : 656 Мбайт (88%)
Библиотека кодирования : XviD 73
Аудио
Идентификатор : 1
Формат : MPEG Audio
Версия формата : Version 1
Профиль формата : Layer 3
Идентификатор кодека : 55
Идентификатор кодека/Подсказка : MP3
Продолжительность : 1 ч. 30 м.
Вид битрейта : Постоянный
Битрейт : 128 Кбит/сек
Каналы : 2 канала
Частота : 48, 0 КГц
Метод сжатия : С потерями
Размер потока : 82, 9 Мбайт (11%)
Выравнивание : Соединение по промежуткам
Продолжительность промежутка : 40 мс. (1, 00 видеокадр)
Время предзагрузки промежутка : 504 мс.
Библиотека кодирования : LAME3.99r
Залил: AVPStudio

Онлайн видео Рита (2010) DVDRip от New


Размер скачиваемого торрента: 745.05 MB (781240320 Bytes)


Рита (2010) DVDRip от New-Team
загрузка...
Рейтинг →
 (голосов: 1, оценка 3/5, голосовать можно 1 раз )

Другие торренты по теме:

  • Милашка Рита / Lovely Rita, sainte patronne des cas dsesprs (2003) DVDRip от FilmRus | P


    • Комментарии (0):

      Информация

      Информация

        Посетители, находящиеся в группе Гости, не могут оставлять комментарии в данной новости.

        ↓ Меню



        ↓ Опрос

        А Вы добавили сайт в закладки?
        Да
        Не


        Top 10 за месяц (Фильмы)