.
Авторизация | Регистрация
» » Полночная жара / Midnight Heat (1996) DVDRip | P торрент скачать бесплатно




    Полночная жара / Midnight Heat (1996) DVDRip | P торрент скачать бесплатно

    Опубликовал: Админ | Дата: 27-02-2015, 11:09 | Просмотров: 539




    Страна: США
    Производство: Midnight Heat Productions
    Жанр: Боевик
    Год выпуска: 1996

    Продолжительность: 01:34:02


    Перевод: Профессиональный многоголосый закадровый

    Оригинальная аудиодорожка: Английская

    Cубтитры: Нет


    Режиссер: Аллан А. Голдштейн


    В ролях: Брайан Босворт, Брэд Дуриф, Клэр Ярлетт, Марта Дюбуа, Джереми Робертс, Лэнс ЛеГолт, Мари Барриентос, Шила Уиллс, Жерар Л’Орё, Том Постер




    Описание: В начале фильма циничный садист Дуриф освобождает из тюремного автобуса своего дружка, убивая всех в нем находящихся. Затем мистер Грэй попадает под машину, а потом в больницу, где теряет память, постепенно возвращающуюся к нему в виде кошмаров, в которых фигурирует вышеупомянутый Дуриф. Найдя случайный телефон, он звонит по этому номеру, а в ответ ему говорят, что он потенциальный покойник. Грэй пытается выяснить, что связано с татуировкой на его руке, а его пытаются убить и говорят, что делают такие в тюрьме и только членам Белой банды. За что же его хотят убить?

    Исходник: DVD5 R5

    Тип релиза: DVDRip

    Контейнер: AVI


    Видео: 704x528 (1.33:1), 23.976 fps, XviD ~1751 kbps avg, 0.20 bit/pixel
    Аудио: #1: 48 kHz, AC3 6.0 ~224.00 kbps avg (RUS)
    Аудио: #2: 48 kHz, AC3 6.0 ~224.00 kbps avg (ENG)



    MediaInfo
    Общее
    Полное имя : D:1АААПолночная жара.avi
    Формат : AVI
    Формат/Информация : Audio Video Interleave
    Размер файла : 1,45 Гбайт
    Продолжительность : 1 ч. 34 м.
    Общий поток : 2214 Кбит/сек
    Программа кодирования : VirtualDubMod 1.5.10.2 (build 2540/release)
    Библиотека кодирования : VirtualDubMod build 2540/release

    Видео
    Идентификатор : 0
    Формат : MPEG-4 Visual
    Профиль формата : Advanced Simple@L5
    Параметр BVOP формата : 2
    Параметр QPel формата : Нет
    Параметр GMC формата : Без точки перехода
    Параметр матрицы формата : Default (MPEG)
    Режим смешивания : Сжатый битовый поток
    Идентификатор кодека : XVID
    Идентификатор кодека/Подсказка : XviD
    Продолжительность : 1 ч. 34 м.
    Битрейт : 1752 Кбит/сек
    Ширина : 704 пикселя
    Высота : 528 пикселей
    Соотношение сторон : 4:3
    Частота кадров : 23,976 кадра/сек
    Цветовое пространство : YUV
    Субдискретизация насыщенности : 4:2:0
    Битовая глубина : 8 бит
    Тип развёртки : Прогрессивная
    Метод сжатия : С потерями
    Бит/(Пиксели*Кадры) : 0.197
    Размер потока : 1,15 Гбайт (79%)
    Библиотека кодирования : XviD 1.2.1 (UTC 2008-12-04)

    Аудио #1
    Идентификатор : 1
    Формат : AC-3
    Формат/Информация : Audio Coding 3
    Расширение режима : CM (complete main)
    Параметр Endianness формата : Big
    Идентификатор кодека : 2000
    Продолжительность : 1 ч. 34 м.
    Вид битрейта : Постоянный
    Битрейт : 224 Кбит/сек
    Каналы : 6 каналов
    Расположение каналов : Front: L C R, Side: L R, LFE
    Частота : 48,0 КГц
    Битовая глубина : 16 бит
    Метод сжатия : С потерями
    Размер потока : 151 Мбайт (10%)
    Выравнивание : Разделение по промежуткам
    Продолжительность промежутка : 42 мс. (1,00 видеокадр)
    Время предзагрузки промежутка : 500 мс.

    Аудио #2
    Идентификатор : 2
    Формат : AC-3
    Формат/Информация : Audio Coding 3
    Расширение режима : CM (complete main)
    Параметр Endianness формата : Big
    Идентификатор кодека : 2000
    Продолжительность : 1 ч. 34 м.
    Вид битрейта : Постоянный
    Битрейт : 224 Кбит/сек
    Каналы : 6 каналов
    Расположение каналов : Front: L C R, Side: L R, LFE
    Частота : 48,0 КГц
    Битовая глубина : 16 бит
    Метод сжатия : С потерями
    Размер потока : 151 Мбайт (10%)
    Выравнивание : Разделение по промежуткам
    Продолжительность промежутка : 42 мс. (1,00 видеокадр)
    Время предзагрузки промежутка : 500 мс.







    Скриншоты




    Релиз группа:

    Автор рипа:
    Залил: YArl
    Размер: 1.45 GB (1561344000 Bytes)
    загрузка...
    Рейтинг →
     (голосов: 1, оценка 5/5, голосовать можно 1 раз )

    Другие торренты по теме:



      Комментарии (0):

      Информация

      Информация

        Посетители, находящиеся в группе Гости, не могут оставлять комментарии в данной новости.

        ↓ Меню



        ↓ Опрос

        А Вы добавили сайт в закладки?
        Да
        Не


        Top 10 за неделю (Фильмы)