.
Авторизация | Регистрация
» » Миллионер поневоле (2007) DVDRip торрент скачать бесплатно




    Миллионер поневоле (2007) DVDRip торрент скачать бесплатно

    Опубликовал: Админ | Дата: 27-02-2015, 11:09 | Просмотров: 442


    Информация о фильме
    Название: Миллионер поневоле
    Год выхода: 2007
    Жанр: мелодрама, комедия
    Режиссер: Фархот Абдуллаев
    В ролях: Валерий Золотухин, Сергей Загребнев, Лариса Гузеева, Дмитрий Поднозов, Кристина Бабушкина, Ирина Линдт, Валерий Баринов

    О фильме:
    Григорий Курехин — мелкий предприниматель, занимающийся производством пластиковой посуды, умер в больнице на радость конкурентам. Единственный сын и наследник покойного — двадцатилетний, достаточно инфантильный Артём — категорически отказался включиться в незавершенную игру папы. Артём не желает продолжать отца ни в чём.

    Но Курехин-старший не спешит на тот свет: в результате переселения души он загадочным образом трансформируется в Гарсиа — случайного приятеля своего сына, бесшабашного гитариста из электрички. И тут начинается настоящая Жизнь! Только в новом качестве Курехин находит общий язык с сыном! У самого же Гарсиа вдруг складываются весьма забавные отношения со своей совестью: они постоянно ругаются, Гарсиа начинает изобретать способы, чтобы в нужный момент отвязаться от непрошенного гостя.



    Страна: Россия
    Студия: Ментор Синема
    Продолжительность: 8 серий ~ 360 мин.
    Перевод: Не требуется

    Файл
    Кодек: XviD / AC3
    Качество: DVDRip
    Видео: XviD, 656x368 (16:9), 25 fps, ~1580 kbps, 0.262 bit/pixel
    Звук: AC3, 48 kHz, 2/0 (L,R) ch, 192 kbps

    MediaInfo
    Общее
    Полное имя : Millioner.ponevole.2007.DVDRipMillioner.ponevole.DVDRip.1seria.avi
    Формат : AVI
    Формат/Информация : Audio Video Interleave
    Размер файла : 541 Мбайт
    Продолжительность : 42 м.
    Общий поток : 1782 Кбит/сек
    Программа кодирования : VirtualDubMod 1.5.10.3 | www.virtualdub-fr.org || (build 2550/release)
    Библиотека кодирования : VirtualDubMod build 2550/release

    Видео
    Идентификатор : 0
    Формат : MPEG-4 Visual
    Профиль формата : Advanced Simple@L5
    Параметр BVOP формата : 1
    Параметр QPel формата : Нет
    Параметр GMC формата : Без точки перехода
    Параметр матрицы формата : Выборочная
    Идентификатор кодека : XVID
    Идентификатор кодека/Подсказка : XviD
    Продолжительность : 42 м.
    Битрейт : 1580 Кбит/сек
    Ширина : 656 пикселей
    Высота : 368 пикселей
    Соотношение сторон : 16:9
    Частота кадров : 25,000 кадров/сек
    Цветовое пространство : YUV
    Субдискретизация насыщенности : 4:2:0
    Битовая глубина : 8 бит
    Тип развёртки : Прогрессивная
    Метод сжатия : С потерями
    Бит/(Пиксели*Кадры) : 0.262
    Размер потока : 479 Мбайт (89%)
    Библиотека кодирования : XviD 1.2.1 (UTC 2008-12-04)

    Аудио
    Идентификатор : 1
    Формат : AC-3
    Формат/Информация : Audio Coding 3
    Расширение режима : CM (complete main)
    Идентификатор кодека : 2000
    Продолжительность : 42 м.
    Вид битрейта : Постоянный
    Битрейт : 192 Кбит/сек
    Каналы : 2 канала
    Расположение каналов : Front: L R
    Частота : 48,0 КГц
    Битовая глубина : 16 бит
    Метод сжатия : С потерями
    Размер потока : 58,3 Мбайт (11%)
    Выравнивание : Разделение по промежуткам
    Продолжительность промежутка : 40 мс. (1,00 видеокадр)
    Время предзагрузки промежутка : 500 мс.

    Скриншоты

    Размер: 4.36 GB (4677578752 Bytes)
    загрузка...
    Рейтинг →
     (голосов: 1, оценка 3/5, голосовать можно 1 раз )

    Другие торренты по теме:

  • Миллионер поневоле (2007) 2хDVD5 от Youtracker торрент скачать бесплатно
  • Миллионер поневоле (2007) DVDRip от New-Team скачать торрент бесплатно


    • Комментарии (0):

      Информация

      Информация

        Посетители, находящиеся в группе Гости, не могут оставлять комментарии в данной новости.

        ↓ Меню



        ↓ Опрос

        А Вы добавили сайт в закладки?
        Да
        Не


        Top 10 за неделю (Фильмы)