.
Авторизация | Регистрация
» » Орден Чёрного Орла / Закон Чёрного Орла / The Order of the Black Eagle (1987) TVRip | НТВ торрент скачать бесплатно




    Орден Чёрного Орла / Закон Чёрного Орла / The Order of the Black Eagle (1987) TVRip | НТВ торрент скачать бесплатно

    Опубликовал: Админ | Дата: 27-02-2015, 11:09 | Просмотров: 481



    Орден Чёрного Орла / Закон Чёрного Орла / The Order of the Black Eagle

    Страна: США
    Жанр: боевик
    Год выпуска: 1987
    Продолжительность: 01:29:36
    Перевод: Профессиональный (двухголосый закадровый) НТВ
    Cубтитры: нет

    Режиссер: Уорт Китер / Worth Keeter

    В ролях:
    Йен Хантер, С.К. Бибби, Уильям Т. Хикс, Anna Rapagna. Джилл Доннеллан, Shangtai Tuan, Джин Шерер. Вольфганг Линкман, Фло Химэн, Дин Витуорт и другие

    Описание:
    Специальным агентам спецслужб поручают проникнуть в логово Чёрного Орла, нацистко-террористической организации, и уничтожить эту мировую угрозу. Очередная бондиада.



    Качество: TVRip
    Формат: MPEG-PS
    Видео: MPEG2 Video, 720x576 (4:3) 25.00fps, ~6144 Kbps, 0.593 bit/pixel
    Аудио: MP2, 48000Hz, 2/0 (L,R) ch, 192 Kbps
    Семпл

    Автор: Valeronius
    MediaInfo
    Формат : MPEG-PS
    Размер файла : 4,02 Гбайт
    Продолжительность : 1 ч. 29 м.
    Общий поток : 6422 Кбит/сек

    Видео
    Идентификатор : 224 (0xE0)
    Формат : MPEG Video
    Версия формата : Version 2
    Профиль формата : Main@Main
    Параметр BVOP формата : Да
    Параметр матрицы формата : По умолчанию
    Параметр GOP формата : M=3, N=15
    Продолжительность : 1 ч. 29 м.
    Вид битрейта : Переменный
    Битрейт : 6144 Кбит/сек
    Ширина : 720 пикселей
    Высота : 576 пикселей
    Соотношение сторон : 4:3
    Частота кадров : 25,000 кадров/сек
    Стандарт вещания : PAL
    Цветовое пространство : YUV
    Субдискретизация насыщенности : 4:2:0
    Битовая глубина : 8 бит
    Тип развёртки : Прогрессивная
    Метод сжатия : С потерями
    Бит/(Пиксели*Кадры) : 0.593
    Размер потока : 3,82 Гбайт (95%)

    Аудио
    Идентификатор : 192 (0xC0)
    Формат : MPEG Audio
    Версия формата : Version 1
    Профиль формата : Layer 2
    Продолжительность : 1 ч. 29 м.
    Вид битрейта : Постоянный
    Битрейт : 192 Кбит/сек
    Каналы : 2 канала
    Частота : 48,0 КГц
    Метод сжатия : С потерями
    Размер потока : 123 Мбайт (3%)
    Скриншоты

    Размер: 4.02 GB (4315443200 Bytes)
    загрузка...
    Рейтинг →
     (голосов: 1, оценка 3/5, голосовать можно 1 раз )

    Другие торренты по теме:



      Комментарии (0):

      Информация

      Информация

        Посетители, находящиеся в группе Гости, не могут оставлять комментарии в данной новости.

        ↓ Меню



        ↓ Опрос

        А Вы добавили сайт в закладки?
        Да
        Не


        Top 10 за неделю (Фильмы)