.
Авторизация | Регистрация
Хочешь лучшие торренты? Добавь свой email!
Добавить
» » СашаТаня (2013) WEB-DLRip от Generalfilm | КПК торрент скачать бесплатно




    СашаТаня (2013) WEB-DLRip от Generalfilm | КПК торрент скачать бесплатно

    Опубликовал: Админ | Дата: 27-02-2015, 11:09 | Просмотров: 825



    Оригинальное название: СашаТаня
    Год выпуска: 2013
    Жанр: Комедийный телесериал
    Режиссер: Михаил Старчак
    В ролях: Андрей Гайдулян, Валентина Рубцова, Алексей Климушкин, Елена Бирюкова, Татьяна Орлова, Андрей Лебедев, Ксения Хаирова, Олег Новиков, Сергей Рудзевич

    О фильме: Кто кричит по ночам и спит днем? Зачем молодому отцу качать пустую колыбель? Что можно хранить в холодильнике без угрозы для мужского достоинства? На эти и многие другие вопросы ответит САШАТАНЯ– новый сериал ТНТ о семейной жизни молодежи. САШАТАНЯ– история о жизни молодой семьи. Герои старого Универа Саша и Таня окончили университет. Теперь у них совсем другие заботы. Принципиальный Саша наотрез отказывается от финансовой помощи отца – рублевского олигарха Сильвестра Андреевича. Сашина реальность – квартира в многоэтажке на окраине города, работа на побегушках в офисе, жена-домохозяйка, плачущий ребенок и жизнь от зарплаты до зарплаты.



    Страна: Россия
    Студия: Comedy Club Production
    Продолжительность: 36 x ~00:23:45
    Перевод: Не требуется

    Файл
    Формат: MP4
    Качество: WEB-DLRip | КПК
    Видео: MPEG-4 AVC (x264), 640x360, ~500 kbps, 23.976 fps
    Аудио: AAC LC, 48.0 KHz, 2 ch, 128 Kbps
    Субтитры: Нет

    Семпл

    Скриншоты

    MI
    D:киноSashaTanya.S01.2013.AVC.WEB-DLRip.KPK.GeneralfilmSashaTanya.s01.e36.2013.AVC.WEB-DLRip.KPK.Generalfilm.mp4
    Format : MPEG-4
    Format profile : Base Media
    Codec ID : isom
    File size : 106 MiB
    Duration : 23mn 31s
    Overall bit rate mode : Variable
    Overall bit rate : 631 Kbps
    Encoded date : UTC 2013-08-03 09:53:26
    Tagged date : UTC 2013-08-03 09:53:26
    Video #1
    ID : 1
    Format : AVC
    Format/Info : Advanced Video Codec
    Format profile : Baseline@L4.1
    Format settings, CABAC : No
    Format settings, ReFrames : 6 frames
    Codec ID : avc1
    Codec ID/Info : Advanced Video Coding
    Duration : 23mn 31s
    Bit rate : 500 Kbps
    Maximum bit rate : 1 684 Kbps
    Width : 640 pixels
    Height : 360 pixels
    Display aspect ratio : 16:9
    Frame rate mode : Constant
    Frame rate : 23.976 fps
    Color space : YUV
    Chroma subsampling : 4:2:0
    Bit depth : 8 bits
    Scan type : Progressive
    Bits/(Pixel*Frame) : 0.091
    Stream size : 84.1 MiB (79%)
    Writing library : x264 core 119 r2106 07efeb4
    Encoding settings : cabac=0 / ref=6 / deblock=1:-1:-1 / analyse=0x1:0x111 / me=umh / subme=7 / psy=1 / psy_rd=1.00:0.00 / mixed_ref=0 / me_range=16 / chroma_me=1 / trellis=1 / 8x8dct=0 / cqm=0 / deadzone=21,11 / fast_pskip=0 / chroma_qp_offset=-2 / threads=3 / sliced_threads=0 / nr=0 / decimate=1 / interlaced=0 / bluray_compat=0 / constrained_intra=0 / bframes=0 / weightp=0 / keyint=250 / keyint_min=23 / scenecut=40 / intra_refresh=0 / rc_lookahead=60 / rc=2pass / mbtree=1 / bitrate=500 / ratetol=1.0 / qcomp=0.60 / qpmin=0 / qpmax=69 / qpstep=4 / cplxblur=20.0 / qblur=0.5 / ip_ratio=1.40 / aq=1:1.00
    Encoded date : UTC 2013-08-03 09:53:26
    Tagged date : UTC 2013-08-03 09:53:48
    Audio #2
    ID : 2
    Format : AAC
    Format/Info : Advanced Audio Codec
    Format profile : LC
    Codec ID : 40
    Duration : 23mn 31s
    Bit rate mode : Variable
    Bit rate : 128 Kbps
    Maximum bit rate : 145 Kbps
    Channel(s) : 2 channels
    Channel positions : Front: L R
    Sampling rate : 48.0 KHz
    Compression mode : Lossy
    Stream size : 21.5 MiB (20%)
    Encoded date : UTC 2013-08-03 09:53:47
    Tagged date : UTC 2013-08-03 09:53:48

    Релиз от:
    Залил: toys_watch
    Размер: 3.64 GB (3912061431 Bytes)
    загрузка...
    Рейтинг →
     (голосов: 1, оценка 5/5, голосовать можно 1 раз )

    Другие торренты по теме:

  • СашаТаня (2013) DVB by SANNYa
  • СашаТаня (2013) SATRip
  • СашаТаня (2013) WEB-DL 720p
  • СашаТаня (2013) WEB-DLRip
  • СашаТаня (2013) WEB-DLRip-AVC от Youtracker
  • СашаТаня (2013) WEBRip
  • СашаТаня (2013) WEBRip от FreeRutor
  • СашаТаня (2013) WEBRip 720p от Deadmauvlad


    • Комментарии (0):

      Информация

      Информация

        Посетители, находящиеся в группе Гости, не могут оставлять комментарии в данной новости.

        ↓ Меню



        ↓ Опрос

        А Вы добавили сайт в закладки?
        Да
        Не


        Top 10 за месяц (Фильмы)