.
Авторизация | Регистрация
Хочешь лучшие торренты? Добавь свой email!
Добавить
» » Анаконда / Anaconda (1997) BDRip-AVC от 0ptimus | D, P, A торрент скачать бесплатно




    Анаконда / Anaconda (1997) BDRip-AVC от 0ptimus | D, P, A торрент скачать бесплатно

    Опубликовал: Админ | Дата: 27-02-2015, 11:09 | Просмотров: 476



    Информация о фильме
    Название: Анаконда
    Оригинальное название: Anaconda
    Год выхода: 1997
    Жанр: ужасы, боевик, триллер, приключения
    Режиссер: Луис Льоса
    В ролях: Дженнифер Лопес, Айс Кьюб, Джон Войт, Эрик Штольц, Джонатан Хайд, Оуэн Уилсон, Кари Уорер, Винсент Кастелланос, Дэнни Трехо, Фрэнк Уэлкер

    О фильме:
    Команда исследователей отправляется на поиски затерянных индейских племен в самое сердце таинственных джунглей Амазонки. Наслаждаясь пейзажами великой реки, они не подозревают, что их проводник — сумасшедший охотник, помешавшийся на идее поймать гигантскую змею. Никто не верит его рассказам о мистическом хищнике, пока не появляется первая жертва, и их путешествие превращается в борьбу за выживание. Анаконда не ждет охотников, она сама — охотник.



    Страна: США, Бразилия, Перу
    Студия: Cinema Line Film Corporation, Columbia Pictures Corporation, Iguana Producciones, Middle Fork Productions, Skylight Cinema Foto Art, St. Tropez Films
    Продолжительность: 01:29:20
    Перевод: Дублированный, профессиональный (многоголосый закадровый), авторский (одноголосый закадровый)

    Файл
    Кодек: h.264
    Качество: BDRip-AVC
    Видео: 2124 Кбит/с, 1024x426, 23.976 кадр/с

    Звук:
    • №1: Русский (AC3, 6 ch, 384 Кбит/с) Дублированный
    • №2: Русский (AC3, 2 ch, 192 Кбит/с) Профессиональный многоголосый
    • №3: Русский (AC3, 6 ch, 384 Кбит/с) Авторский одноголосый Андрей Гаврилов
    • №4: Английский (AC3, 6 ch, 384 Кбит/с)
    Отдельно:
    • №5: Русский (AC3, 6 ch, 384 Кбит/с) Авторский одноголосый Юрий Живов
    • №6: Русский (AC3, 6 ch, 384 Кбит/с) Авторский одноголосый Егор Хрусталев
    • №7: Русский (AC3, 2 ch, 192 Кбит/с) Авторский одноголосый Николай Антонов

    Субтитры:
    • №1: Русские полные
    • №2: Русские форсированные
    • №3: Английские полные

    MediaInfo и x264 log

    Полное имя : Anaconda.1997.x264.BDRip.(AVC).0ptimus.ALL_AUDIO_IN.mkv
    Формат : Matroska
    Версия формата : Version 4 / Version 2
    Размер файла : 2,76 Гбайт
    Продолжительность : 1 ч. 29 м.
    Общий поток : 4429 Кбит/сек
    Название фильма : Анаконда | Anaconda 1997 -=BDRip (AVC) by 0ptimus=-
    Дата кодирования : UTC 2013-08-04 09:20:53
    Программа кодирования : mkvmerge v6.1.0 (;Old Devil;) built on Mar 2 2013 14:32:37
    Библиотека кодирования : libebml v1.3.0 libmatroska v1.4.0

    Видео
    Идентификатор : 1
    Формат : AVC
    Формат/Информация : Advanced Video Codec
    Профиль формата : High@L4.1
    Параметр CABAC формата : Да
    Параметр ReFrames формата : 10 кадров
    Идентификатор кодека : V_MPEG4/ISO/AVC
    Продолжительность : 1 ч. 29 м.
    Битрейт : 2124 Кбит/сек
    Ширина : 1024 пикселя
    Высота : 426 пикселей
    Соотношение сторон : 2,40:1
    Частота кадров : 23,976 кадра/сек
    Цветовое пространство : YUV
    Субдискретизация насыщенности : 4:2:0
    Битовая глубина : 8 бит
    Тип развёртки : Прогрессивная
    Бит/(Пиксели*Кадры) : 0.203
    Размер потока : 1,27 Гбайт (46%)
    Заголовок : Rip by 0ptimus
    Библиотека кодирования : x264 core 133 r2334 a3ac64b
    Настройки программы : cabac=1 / ref=10 / deblock=1:-3:-3 / analyse=0x3:0x113 / me=umh / subme=11 / psy=1 / psy_rd=1.00:0.20 / mixed_ref=1 / me_range=32 / chroma_me=1 / trellis=2 / 8x8dct=1 / cqm=0 / deadzone=21,11 / fast_pskip=0 / chroma_qp_offset=-3 / threads=4 / lookahead_threads=1 / sliced_threads=0 / nr=0 / decimate=0 / interlaced=0 / bluray_compat=0 / constrained_intra=0 / bframes=9 / b_pyramid=2 / b_adapt=2 / b_bias=0 / direct=3 / weightb=1 / open_gop=0 / weightp=2 / keyint=240 / keyint_min=23 / scenecut=40 / intra_refresh=0 / rc_lookahead=40 / rc=2pass / mbtree=0 / bitrate=2124 / ratetol=1.0 / qcomp=0.60 / qpmin=0 / qpmax=69 / qpstep=4 / cplxblur=20.0 / qblur=0.5 / vbv_maxrate=50000 / vbv_bufsize=50000 / nal_hrd=none / ip_ratio=1.40 / pb_ratio=1.30 / aq=1:1.00
    Язык : English

    Аудио #1
    Идентификатор : 2
    Формат : AC-3
    Формат/Информация : Audio Coding 3
    Расширение режима : CM (complete main)
    Идентификатор кодека : A_AC3
    Продолжительность : 1 ч. 29 м.
    Вид битрейта : Постоянный
    Битрейт : 384 Кбит/сек
    Каналы : 6 каналов
    Расположение каналов : Front: L C R, Side: L R, LFE
    Частота : 48,0 КГц
    Битовая глубина : 16 бит
    Метод сжатия : С потерями
    Размер потока : 245 Мбайт (9%)
    Заголовок : Дублированный AC3 5.1 @ 384 kbps
    Язык : Russian

    Аудио #2
    Идентификатор : 3
    Формат : AC-3
    Формат/Информация : Audio Coding 3
    Профиль формата : Dolby Digital
    Расширение режима : CM (complete main)
    Идентификатор кодека : A_AC3
    Продолжительность : 1 ч. 29 м.
    Вид битрейта : Постоянный
    Битрейт : 192 Кбит/сек
    Каналы : 2 канала
    Расположение каналов : Front: L R
    Частота : 48,0 КГц
    Битовая глубина : 16 бит
    Метод сжатия : С потерями
    Размер потока : 123 Мбайт (4%)
    Заголовок : Многоголосый закадровый AC3 2.0 @ 192 kbps

    Аудио #3
    Идентификатор : 4
    Формат : AC-3
    Формат/Информация : Audio Coding 3
    Расширение режима : CM (complete main)
    Идентификатор кодека : A_AC3
    Продолжительность : 1 ч. 29 м.
    Вид битрейта : Постоянный
    Битрейт : 384 Кбит/сек
    Каналы : 6 каналов
    Расположение каналов : Front: L C R, Side: L R, LFE
    Частота : 48,0 КГц
    Битовая глубина : 16 бит
    Метод сжатия : С потерями
    Размер потока : 245 Мбайт (9%)
    Заголовок : Авторский Андрей Гаврилов AC3 5.1 @ 384 kbps

    Аудио #4
    Идентификатор : 5
    Формат : AC-3
    Формат/Информация : Audio Coding 3
    Расширение режима : CM (complete main)
    Идентификатор кодека : A_AC3
    Продолжительность : 1 ч. 29 м.
    Вид битрейта : Постоянный
    Битрейт : 384 Кбит/сек
    Каналы : 6 каналов
    Расположение каналов : Front: L C R, Side: L R, LFE
    Частота : 48,0 КГц
    Битовая глубина : 16 бит
    Метод сжатия : С потерями
    Размер потока : 245 Мбайт (9%)
    Заголовок : Авторский Юрий Живов AC3 5.1 @ 384 kbps
    Язык : Russian

    Аудио #5
    Идентификатор : 6
    Формат : AC-3
    Формат/Информация : Audio Coding 3
    Расширение режима : CM (complete main)
    Идентификатор кодека : A_AC3
    Продолжительность : 1 ч. 29 м.
    Вид битрейта : Постоянный
    Битрейт : 384 Кбит/сек
    Каналы : 6 каналов
    Расположение каналов : Front: L C R, Side: L R, LFE
    Частота : 48,0 КГц
    Битовая глубина : 16 бит
    Метод сжатия : С потерями
    Размер потока : 245 Мбайт (9%)
    Заголовок : Авторский Егор Хрусталев AC3 5.1 @ 384 kbps
    Язык : Russian

    Аудио #6
    Идентификатор : 7
    Формат : AC-3
    Формат/Информация : Audio Coding 3
    Профиль формата : Dolby Digital
    Расширение режима : CM (complete main)
    Идентификатор кодека : A_AC3
    Продолжительность : 1 ч. 29 м.
    Вид битрейта : Постоянный
    Битрейт : 192 Кбит/сек
    Каналы : 2 канала
    Расположение каналов : Front: L R
    Частота : 48,0 КГц
    Битовая глубина : 16 бит
    Метод сжатия : С потерями
    Размер потока : 123 Мбайт (4%)
    Заголовок : Авторский Николай Антонов AC3 2.0 @ 192 kbps
    Язык : Russian

    Аудио #7
    Идентификатор : 8
    Формат : AC-3
    Формат/Информация : Audio Coding 3
    Расширение режима : CM (complete main)
    Идентификатор кодека : A_AC3
    Продолжительность : 1 ч. 29 м.
    Вид битрейта : Постоянный
    Битрейт : 384 Кбит/сек
    Каналы : 6 каналов
    Расположение каналов : Front: L C R, Side: L R, LFE
    Частота : 48,0 КГц
    Битовая глубина : 16 бит
    Метод сжатия : С потерями
    Размер потока : 245 Мбайт (9%)
    Заголовок : AC3 5.1 @ 384 kbps
    Язык : English

    Текст #1
    Идентификатор : 9
    Формат : UTF-8
    Идентификатор кодека : S_TEXT/UTF8
    Идентификатор кодека/Информация : UTF-8 Plain Text
    Язык : Russian

    Текст #2
    Идентификатор : 10
    Формат : UTF-8
    Идентификатор кодека : S_TEXT/UTF8
    Идентификатор кодека/Информация : UTF-8 Plain Text
    Заголовок : Форсированные
    Язык : Russian

    Текст #3
    Идентификатор : 11
    Формат : UTF-8
    Идентификатор кодека : S_TEXT/UTF8
    Идентификатор кодека/Информация : UTF-8 Plain Text
    Язык : English

    Меню
    00:00:00.000 : en:Start
    00:04:32.898 : en:Better Death
    00:11:48.166 : en:Jungle Hotel
    00:19:30.795 : en:Paul Sarone
    00:25:17.516 : en:Fish Story
    00:30:51.767 : en:Rap Rap
    00:37:24.451 : en:Snake Totem
    00:39:08.179 : en:Wild Sounds
    00:49:12.783 : en:Wild Boar
    00:54:21.341 : en:A Caught Rope
    00:59:44.331 : en:Tracheotomy
    01:04:41.628 : en:Heading Back
    01:11:22.737 : en:Something New
    01:15:52.548 : en:Blowing It
    01:19:48.450 : en:Treasure Hunt
    01:22:53.343 : en:Squeezing Mateo

    ---------------------------------------------------------------------
    x264 info: frame I:1153 Avg QP:16.62 size: 58932
    x264 info: frame P:28523 Avg QP:19.51 size: 21283
    x264 info: frame B:98844 Avg QP:21.06 size: 7552
    ---------------------------------------------------------------------
    Скриншоты


    Релиз от:
    Размер: 2.76 GB (2967087679 Bytes)
    загрузка...
    Рейтинг →
     (голосов: 1, оценка 3/5, голосовать можно 1 раз )

    Другие торренты по теме:

  • Анаконда / Anaconda (1997) BDRip-AVC
  • Анаконда / Anaconda (1997) BDRip от HQCLUB скачать через торрент бесплатно
  • Анаконда / Anaconda (1997) BDRip 720p | D, P, A
  • Озеро страха: Анаконда / Lake Placid vs. Anaconda (2015) WEB-DL 720p | iTunes
  • Анаконда / Anaconda / 1997 / ДБ, ПМ, АП (Гаврилов, Живов, Хрусталев), ЛО, СТ / BDRip (AVC)
  • National Geographic. Анаконда. Тихий убийца / Anaconda. Silent killer (2014) HDTVRip-AVC от KinoHitHD | D
  • Анаконда 4: Кровавый след / Anacondas 4: Trail of Blood (2009) DVDRip-AVC | P2


    • Комментарии (0):

      Информация

      Информация

        Посетители, находящиеся в группе Гости, не могут оставлять комментарии в данной новости.

        ↓ Меню



        ↓ Опрос

        А Вы добавили сайт в закладки?
        Да
        Не


        Top 10 за месяц (Фильмы)