.
Авторизация | Регистрация
Хочешь лучшие торренты? Добавь свой email!
Добавить
» » Мастер тай-чи / Мастер тай-цзи / Man of Tai Chi (2013) DVDScr от BTT-TEAM торрент скачать бесплатно




    Мастер тай-чи / Мастер тай-цзи / Man of Tai Chi (2013) DVDScr от BTT-TEAM торрент скачать бесплатно

    Опубликовал: Админ | Дата: 27-02-2015, 11:09 | Просмотров: 384



    Мастер тай-чи / Мастер тай-цзи / Man of Tai Chi

    Год выпуска: 2013
    Страна: Китай,
    Жанр: боевик
    Продолжительность: 01:36:40
    Перевод: Одноголосый закадровый
    Русские субтитры: есть
    субтитры:Китайский/Английский(хардсаб)

    Режиссер: Киану Ривз / Keanu Reeves

    В ролях: Киану Ривз, Ико Ювайс, Тайгер Ху Чен, Карен Мок, Джереми Меринас, Стивен Дасс, Майкл Чан, Брахим Ачаббаке, Хелен Леклерк, Оушен Хоу и др..

    Описание: Пекин. Амбициозный юноша Чэнь Линь-Ху по кличке Тигр подрабатывает скромным курьером, но после работы он превращается в молодую звезду боевых искусств, постепенно оттачивая свои навыки, следуя традициям Тай-чи Лин Кун. Обучившись размеренным и мирным движениям из Тай-чи, он приспособил их для бойцовских соревнований.

    Донака Марк, скрываясь от гонконгской полиции, попадает в другой столичный мегаполис, где царит неразбериха и хаос, и открывает там подпольный бойцовский клуб, в котором реальные деньги можно заработать, побеждая противников в поединках без правил, транслируемых в прямом эфире богатым клиентам.

    Подыскивая новую звезду, Донака пытается приманить Тигра обещанием лёгкого заработка. Вхождение в этот мир выявляет самую тёмную сторону Чэнь Линь-Ху, но ему необходимы наличные. Его навыки помогают ему на ринге, но сможет ли он, сражаясь, сохранить в себе чистоту и добропорядочность?

    Релиз группы:

    Доп. информация:
    За перевод и предоставленные субтитры огромное спасибо Moritsugu

    Озвучивание Ворон

    Примечание: качаем СЭМПЛ! прежде чем скачивать фильм!

    Качество: DVDScr - Сэмпл
    Исходник: Man.of.Tai.Chi.2013.DVDScr(New Source).XviD.AC3-SmY
    Формат видео: AVI
    Видео: 704x288 (2.40:1), 29.971 fps, XviD build 50 ~1786 kbps avg, 0.29 bit/pixel
    Аудио: 48 kHz, AC3 Dolby Digital, 2/0 (L,R) ch, ~192 kbps (Русский)
    Аудио: 48 kHz, AC3 Dolby Digital, 2/0 (L,R) ch, ~192 kbps (Китайский)
    Формат субтитров: softsub (ass)

    Скриншоты




    отчет MediaInfo

    Формат : AVI
    Формат/Информация : Audio Video Interleave
    Размер файла : 1,48 Гбайт
    Продолжительность : 1 ч. 36 м.
    Общий поток : 2189 Кбит/сек
    Программа кодирования : VirtualDubMod 1.5.10.2 (build 2542/release)
    Библиотека кодирования : VirtualDubMod build 2542/release

    Видео
    Идентификатор : 0
    Формат : MPEG-4 Visual
    Профиль формата : Advanced Simple@L5
    Параметр BVOP формата : 2
    Параметр QPel формата : Нет
    Параметр GMC формата : Без точки перехода
    Параметр матрицы формата : Default (MPEG)
    Идентификатор кодека : XVID
    Идентификатор кодека/Подсказка : XviD
    Продолжительность : 1 ч. 36 м.
    Битрейт : 1787 Кбит/сек
    Ширина : 704 пикселя
    Высота : 288 пикселей
    Соотношение сторон : 2,40:1
    Частота кадров : 29,970 кадров/сек
    Цветовое пространство : YUV
    Субдискретизация насыщенности : 4:2:0
    Битовая глубина : 8 бит
    Тип развёртки : Прогрессивная
    Метод сжатия : С потерями
    Бит/(Пиксели*Кадры) : 0.294
    Размер потока : 1,21 Гбайт (82%)
    Библиотека кодирования : XviD 1.2.1 (UTC 2008-12-04)

    Аудио #1
    Идентификатор : 1
    Формат : AC-3
    Формат/Информация : Audio Coding 3
    Расширение режима : CM (complete main)
    Параметр Endianness формата : Big
    Идентификатор кодека : 2000
    Продолжительность : 1 ч. 36 м.
    Вид битрейта : Постоянный
    Битрейт : 192 Кбит/сек
    Каналы : 2 канала
    Расположение каналов : Front: L R
    Частота : 48,0 КГц
    Битовая глубина : 16 бит
    Метод сжатия : С потерями
    Размер потока : 133 Мбайт (9%)
    Выравнивание : Разделение по промежуткам
    Продолжительность промежутка : 33 мс. (1,00 видеокадр)
    Время предзагрузки промежутка : 500 мс.

    Аудио #2
    Идентификатор : 2
    Формат : AC-3
    Формат/Информация : Audio Coding 3
    Расширение режима : CM (complete main)
    Параметр Endianness формата : Big
    Идентификатор кодека : 2000
    Продолжительность : 1 ч. 36 м.
    Вид битрейта : Постоянный
    Битрейт : 192 Кбит/сек
    Каналы : 2 канала
    Расположение каналов : Front: L R
    Частота : 48,0 КГц
    Битовая глубина : 16 бит
    Метод сжатия : С потерями
    Размер потока : 133 Мбайт (9%)
    Выравнивание : Разделение по промежуткам
    Продолжительность промежутка : 33 мс. (1,00 видеокадр)
    Время предзагрузки промежутка : 500 мс.

    Размер: 1.48 GB (1586798606 Bytes)
    загрузка...
    Рейтинг →
     (голосов: 1, оценка 5/5, голосовать можно 1 раз )

    Другие торренты по теме:

  • Мастер тай-чи / Мастер тай-цзи / Man of Tai Chi (2013) WEB-DLRip | L1 скачать через торрент бесплатно
  • Мастер тай-чи / Мастер тай-цзи / Man of Tai Chi (2013) WEB-DLRip от BitTracker скачать через торрент бесплатно
  • Мастер тай-чи / Мастер тай-цзи / Man of Tai Chi (2013) WEB-DL 720p от MULTIBITS | P, L скачать через торрент бесплатно
  • Мастер тай-чи / Мастер тай-цзи / Man of Tai Chi (2013) HDRip от Scarabey
  • Мастер тай-чи / Мастер тай-цзи / Man of Tai Chi (2013) HDRip от Scarabey | D | iTunes


    • Комментарии (0):

      Информация

      Информация

        Посетители, находящиеся в группе Гости, не могут оставлять комментарии в данной новости.

        ↓ Меню



        ↓ Опрос

        А Вы добавили сайт в закладки?
        Да
        Не


        Top 10 за месяц (Фильмы)