.
Авторизация | Регистрация
» » Развод в большом городе / What Maisie Knew (2012) BDRip 720p | L1 торрент скачать бесплатно




    Развод в большом городе / What Maisie Knew (2012) BDRip 720p | L1 торрент скачать бесплатно

    Опубликовал: Админ | Дата: 27-02-2015, 11:09 | Просмотров: 319



    Информация о фильме
    Название: Развод в большом городе
    Оригинальное название: What Maisie Knew
    Год выхода: 2012
    Жанр: Драма
    Режиссер: Скотт МакГихи, Дэвид Сигел
    В ролях: Джулианна Мур, Александр Скарсгард, Оната Эйприл, Джоэнна Вандерхам, Стив Куган, Сэди Рэй, Джесси Стоун Спадаччини, Диана Гарсиа, Амелия Кэмпбелл, Мэдди Кормэн

    Описание: Действие происходит в современном Нью-Йорке. Героиня истории — шестилетняя девочка Мейзи, ставшая свидетельницей тяжелого развода своих родителей — рок-звезды и арт-дилера.



    Выпущено: США
    Продолжительность: 01:38:56
    Озвучивание: Любительское (одноголосое) D-speaker

    Файл
    Формат: MKV
    Качество: BDRip 720p
    Видео: 1280x534, 5000 kb/s
    Аудио: Russian: MP3, 128 kb/s (2 ch), English: AC3, 640 kb/s (6 ch)
    Субтитры: English





    MI

    General
    Complete name : Razvob.v.bolshom.gorode.2012.L1.BDRip.720p.mkv
    Format : Matroska
    Format version : Version 2
    File size : 3.99 GiB
    Duration : 1h 38mn
    Overall bit rate : 5 775 Kbps
    Encoded date : UTC 2013-08-05 19:32:00
    Writing application : mkvmerge v2.9.8 (;C;est le bon;) built on Nov 20 2009 13:01:15
    Writing library : libebml v0.7.9 libmatroska v0.8.1

    Video
    ID : 1
    Format : AVC
    Format/Info : Advanced Video Codec
    Format profile : High@L4.1
    Format settings, CABAC : Yes
    Format settings, ReFrames : 12 frames
    Codec ID : V_MPEG4/ISO/AVC
    Duration : 1h 38mn
    Bit rate : 5 000 Kbps
    Width : 1 280 pixels
    Height : 534 pixels
    Display aspect ratio : 2.40:1
    Frame rate : 23.976 fps
    Color space : YUV
    Chroma subsampling : 4:2:0
    Bit depth : 8 bits
    Scan type : Progressive
    Bits/(Pixel*Frame) : 0.305
    Stream size : 3.38 GiB (85%)
    Writing library : x264 core 133 r2334 a3ac64b
    Encoding settings : cabac=1 / ref=12 / deblock=1:-3:-3 / analyse=0x3:0x113 / me=umh / subme=11 / psy=1 / psy_rd=1.10:0.00 / mixed_ref=1 / me_range=48 / chroma_me=1 / trellis=2 / 8x8dct=1 / cqm=0 / deadzone=21,11 / fast_pskip=0 / chroma_qp_offset=-2 / threads=18 / lookahead_threads=3 / sliced_threads=0 / nr=0 / decimate=0 / interlaced=0 / bluray_compat=0 / constrained_intra=0 / bframes=8 / b_pyramid=2 / b_adapt=2 / b_bias=0 / direct=3 / weightb=1 / open_gop=0 / weightp=2 / keyint=240 / keyint_min=24 / scenecut=40 / intra_refresh=0 / rc_lookahead=240 / rc=2pass / mbtree=1 / bitrate=5000 / ratetol=1.0 / qcomp=0.70 / qpmin=0 / qpmax=69 / qpstep=4 / cplxblur=20.0 / qblur=0.5 / ip_ratio=1.10 / aq=1:0.80
    Language : English
    Default : No
    Forced : No

    Audio #1
    ID : 2
    Format : MPEG Audio
    Format version : Version 1
    Format profile : Layer 3
    Mode : Joint stereo
    Mode extension : MS Stereo
    Codec ID : A_MPEG/L3
    Codec ID/Hint : MP3
    Duration : 1h 38mn
    Bit rate mode : Constant
    Bit rate : 128 Kbps
    Channel(s) : 2 channels
    Sampling rate : 48.0 KHz
    Compression mode : Lossy
    Stream size : 90.6 MiB (2%)
    Language : Russian
    Default : Yes
    Forced : No

    Audio #2
    ID : 3
    Format : AC-3
    Format/Info : Audio Coding 3
    Mode extension : CM (complete main)
    Format settings, Endianness : Big
    Codec ID : A_AC3
    Duration : 1h 38mn
    Bit rate mode : Constant
    Bit rate : 640 Kbps
    Channel(s) : 6 channels
    Channel positions : Front: L C R, Side: L R, LFE
    Sampling rate : 48.0 KHz
    Bit depth : 16 bits
    Compression mode : Lossy
    Stream size : 453 MiB (11%)
    Language : English
    Default : No
    Forced : No

    Text
    ID : 4
    Format : PGS
    Codec ID : S_HDMV/PGS
    Codec ID/Info : The same subtitle format used on BDs/HD-DVDs
    Language : English
    Default : No
    Forced : No
    Скриншоты

    Размер: 3.99 GB (4285020111 Bytes)
    загрузка...
    Рейтинг →
     (голосов: 1, оценка 4/5, голосовать можно 1 раз )

    Другие торренты по теме:



      Комментарии (0):

      Информация

      Информация

        Посетители, находящиеся в группе Гости, не могут оставлять комментарии в данной новости.

        ↓ Меню



        ↓ Опрос

        А Вы добавили сайт в закладки?
        Да
        Не


        Top 10 за неделю (Фильмы)