.
Авторизация | Регистрация
Хочешь лучшие торренты? Добавь свой email!
Добавить
» » Чужие против Хищника: Реквием / AVPR: Aliens vs Predator - Requiem (2007) HDRip-AVC | Расширенная версия | D торрент скачать бесплатно




    Чужие против Хищника: Реквием / AVPR: Aliens vs Predator - Requiem (2007) HDRip-AVC | Расширенная версия | D торрент скачать бесплатно

    Опубликовал: Админ | Дата: 27-02-2015, 11:09 | Просмотров: 404



    Чужие против Хищника: Реквием / AVPR: Aliens vs Predator - Requiem / Расширенная версия / Unrated

    Страна: США
    Жанр: Фантастика, боевик, триллер
    Год выпуска: 2007
    Продолжительность: 01:41:05
    Перевод: Профессиональный (дублированный), Профессиональный (многоголосый закадровый) С.Р.И. / студия Кравец
    Cубтитры: русские (форсированные) на расширенные места, русские, английские
    Оригинальная аудиодорожка: нет

    Режиссер: Колин Штраус / Colin Strause, Грег Штраус / Greg Strause

    В ролях: Стивен Паскуале, Рейко Эйлсворт, Джон Ортиз, Джонни Льюис, Эриель Гейд, Кристен Хагер, Сэм Трэммелл, Роберт Джой, Дэвид Петкау, Том Вудрафф мл.


    Атакованный Предалиеном, жутким гибридом Хищника и Чужого, корабль Хищников терпит крушение в лесах, окружающих маленький техасский городок. И пока на сигнал о помощи, посланный в момент падения, спешит подкрепление, Чужие успевают инфицировать половину населения города.

    Доп.информация: В дубляже на расширенные места - перевод отсутствует
    Сравнение версий



    Качество: HDRip-AVC
    Формат: MKV
    Видео: 1056 х 448, 23.976 fps, 2 314 Kbps, 0.204 Bits/(Pixel*Frame)
    Аудио 1: 48.0 kHz, AC3 Dolby Digital, 3/2 (L,C,R,l,r) LFE ch, 384 kbps Дубляж
    Аудио 2: 48.0 kHz, AC3 Dolby Digital, 3/2 (L,C,R,l,r) LFE ch, 448 kbps Профессиональный (многоголосый, закадровый) С.Р.И. / студия Кравец

    Автор:

    MediaInfo:
    Format : Matroska
    Format version : Version 2
    File size : 2.22 GiB
    Duration : 1h 41mn
    Overall bit rate : 3 147 Kbps
    Encoded date : UTC 2013-07-31 22:34:54
    Writing application : mkvmerge v5.3.0 (;I could have danced;) built on Feb 9 2012 10:38:07
    Writing library : libebml v1.2.3 libmatroska v1.3.0
    Attachment : Yes

    Video
    ID : 1
    Format : AVC
    Format/Info : Advanced Video Codec
    Format profile : High@L4.1
    Format settings, CABAC : Yes
    Format settings, ReFrames : 11 frames
    Codec ID : V_MPEG4/ISO/AVC
    Duration : 1h 41mn
    Bit rate : 2 314 Kbps
    Width : 1 056 pixels
    Height : 448 pixels
    Display aspect ratio : 2.35:1
    Frame rate mode : Constant
    Frame rate : 23.976 fps
    Color space : YUV
    Chroma subsampling : 4:2:0
    Bit depth : 8 bits
    Scan type : Progressive
    Bits/(Pixel*Frame) : 0.204
    Stream size : 1.59 GiB (72%)
    Writing library : x264 core 133 r2334 a3ac64b
    Encoding settings : cabac=1 / ref=11 / deblock=1:-2:-1 / analyse=0x3:0x133 / me=umh / subme=10 / psy=1 / psy_rd=1.02:0.04 / mixed_ref=1 / me_range=32 / chroma_me=1 / trellis=2 / 8x8dct=1 / cqm=0 / deadzone=21,11 / fast_pskip=1 / chroma_qp_offset=-3 / threads=12 / lookahead_threads=3 / sliced_threads=0 / nr=0 / decimate=1 / interlaced=0 / bluray_compat=0 / constrained_intra=0 / bframes=11 / b_pyramid=2 / b_adapt=2 / b_bias=0 / direct=3 / weightb=1 / open_gop=0 / weightp=2 / keyint=230 / keyint_min=23 / scenecut=40 / intra_refresh=0 / rc_lookahead=40 / rc=2pass / mbtree=1 / bitrate=2314 / ratetol=1.0 / qcomp=0.60 / qpmin=0 / qpmax=69 / qpstep=4 / cplxblur=20.0 / qblur=0.5 / ip_ratio=1.40 / aq=1:1.00
    Language : English
    Default : Yes
    Forced : No

    Audio #1
    ID : 2
    Format : AC-3
    Format/Info : Audio Coding 3
    Mode extension : CM (complete main)
    Format settings, Endianness : Big
    Codec ID : A_AC3
    Duration : 1h 41mn
    Bit rate mode : Constant
    Bit rate : 384 Kbps
    Channel(s) : 6 channels
    Channel positions : Front: L C R, Side: L R, LFE
    Sampling rate : 48.0 KHz
    Bit depth : 16 bits
    Compression mode : Lossy
    Stream size : 278 MiB (12%)
    Title : DUB, 384 kbps, 6 ch
    Language : Russian
    Default : Yes
    Forced : No

    Audio #2
    ID : 3
    Format : AC-3
    Format/Info : Audio Coding 3
    Mode extension : CM (complete main)
    Format settings, Endianness : Big
    Codec ID : A_AC3
    Duration : 1h 41mn
    Bit rate mode : Constant
    Bit rate : 448 Kbps
    Channel(s) : 6 channels
    Channel positions : Front: L C R, Side: L R, LFE
    Sampling rate : 48.0 KHz
    Bit depth : 16 bits
    Compression mode : Lossy
    Stream size : 324 MiB (14%)
    Title : MVO , 384 kbps, 6 ch
    Language : Russian
    Default : No
    Forced : No

    Text #1
    ID : 4
    Format : UTF-8
    Codec ID : S_TEXT/UTF8
    Codec ID/Info : UTF-8 Plain Text
    Title : Русские форсированные
    Language : Russian
    Default : Yes
    Forced : No

    Text #2
    ID : 5
    Format : UTF-8
    Codec ID : S_TEXT/UTF8
    Codec ID/Info : UTF-8 Plain Text
    Title : Русские полные
    Language : Russian
    Default : No
    Forced : No

    Text #3
    ID : 6
    Format : UTF-8
    Codec ID : S_TEXT/UTF8
    Codec ID/Info : UTF-8 Plain Text
    Title : Английские
    Language : English
    Default : No
    Forced : No
    Скриншоты

    Размер: 2.22 GB (2385791774 Bytes)
    загрузка...
    Рейтинг →
     (голосов: 1, оценка 4/5, голосовать можно 1 раз )

    Другие торренты по теме:



      Комментарии (0):

      Информация

      Информация

        Посетители, находящиеся в группе Гости, не могут оставлять комментарии в данной новости.

        ↓ Меню



        ↓ Опрос

        А Вы добавили сайт в закладки?
        Да
        Не


        Top 10 за месяц (Фильмы)