.
Авторизация | Регистрация
» » Миссия Серенити / Serenity (2005) BDRip 720p | D, P2, A торрент скачать бесплатно




    Миссия Серенити / Serenity (2005) BDRip 720p | D, P2, A торрент скачать бесплатно

    Опубликовал: Админ | Дата: 27-02-2015, 11:09 | Просмотров: 451



    Название: Миссия Серенити
    Оригинальное название: Serenity
    Год выпуска: 2005
    Жанр: Фантастика, боевик, триллер, приключения
    Выпущено: США, Universal Pictures
    Режиссер: Джосс Уидон
    В ролях: Натан Филлион, Джина Торрес, Алан Тьюдик, Морена Баккарин, Адам Болдуин, Джевел Стэйт, Шон Маэр, Саммер Глау, Рон Гласс, Чиветел Эджиофор, Эрик Уэйнер

    О фильме: Космический морской волк и ветеран Гражданской Галактической войны Малькольм Мэл Рейнольдс теперь всего лишь капитан транспортного корабля. Когда они взяли на борт пассажиров – молодого доктора и его странную сестру с телепатическими способностями, ни он, ни его товарищи не предполагали, в какую историю ввяжутся. Спасаясь сразу от нескольких могущественных врагов – и от военных сил тоталитарного Вселенского Альянса, и от ужасных каннибалов Пожирателей, команда корабля даже не догадывалась, какая угроза скрывается на борту Серенити.

    Качество: BDRip 720p
    Размер: 10.1 ГБ
    Продолжительность: 01:59:02

    Видео: MPEG-4 AVC, 3740 Мбит/с, 1280x544
    Аудио 1: русский, 48 kHz, AC3, 6 ch, 384 kbps avg, Дублированный, R5
    Аудио 2: русский, 48 kHz, AC3, 6 ch, 448 kbps avg, Tycoon Профессиональный двухголосый
    Аудио 3: русский, 48 kHz, AC3, 6 ch, 448 kbps avg, Василий Горчаков Авторский
    Аудио 4: русский, 48 kHz, AC3, 6 ch, 448 kbps avg, Владимир Королёв Авторский
    Аудио 5: русский, 48 kHz, AC3, 6 ch, 448 kbps avg, Юрий Сербин Авторский
    Субтитры: русские (форсированные)

    Внешние файлы
    Аудио: русский, 48 kHz, DTS, 6 ch, 1509 kbps avg, Tycoon Профессиональный двухголосый
    Аудио: русский, 48 kHz, DTS, 6 ch, 1509 kbps avg, Василий Горчаков Авторский
    Аудио: русский, 48 kHz, DTS, 6 ch, 755 kbps avg, Владимир Королёв Авторский
    Аудио: русский, 48 kHz, DTS, 6 ch, 1509 kbps avg, Юрий Сербин Авторский
    Аудио: английский, 48 kHz, AC3, 6 ch, 448 kbps avg, Оригинал
    Аудио: английский, 48 kHz, AC3, 2 ch, 192 kbps avg, комментарий режиссёра
    Аудио: английский, 48 kHz, AC3, 2 ch, 192 kbps avg, комментарий участников фильма
    Субтитры: русские
    Субтитры: русские (комментарий режиссёра)
    Субтитры: английские (для слабослышащих)
    Субтитры: английские (комментарий режиссёра)
    Субтитры: английские (комментарий участников фильма)

    Сравнение с исходником



    Награды
    Сатурн, 2006 год
    Победитель (1):
    Лучшая актриса второго плана (Саммер Глау)

    Номинации (1):
    Лучший научно-фантастический фильм
    Из отзывов...
    KinoProba

    Так много хочется сказать, что не знаю с чего начать. Впрочем, достаточно того, что это - шедевр!
    Представьте, что в космическом экшене может быть затягивающий и логичный сюжет, остроумные диалоги, великолепная игра актёров, бесподобная работа камеры, красивая постановка драк и практически ни одного штампа! Да, всё это здесь есть. И, может быть, в каком-то из подобных фильмов что-то реализовано получше, но Серенити ложит все эти фильмы на лопатки по совокупности параметров.
    Единственное, что этому фильму не хватает, так это денег. Режиссёр с оператором умело выкручиваются, прикрывая бедность спецэффектов красивыми ракурсами и их быстрыми сменами, а отсутствие размаха — грамотным раскрытием вселенной фильма и редкими, но красивыми космическими баталиями. Но если бы денег было побольше, то к этим уловкам и не надо было прибегать, а фильм бы получился не просто шедевром, но и хитом.

    Кинопоиск
    Лог х264
    ---Information 04.08.2013 12:20:26 avs info: 1280x544p 1:1 @ 24000/1001 fps (cfr)
    ---Information 04.08.2013 12:20:26 x264 info: using SAR=1/1
    ---Information 04.08.2013 12:20:26 x264 info: using cpu capabilities: MMX2 SSE2Fast SSSE3 SSE4.2
    ---Information 04.08.2013 12:20:26 x264 info: profile High, level 4.1
    ---Information 05.08.2013 0:14:41 x264 info: frame I:1815 Avg QP:17.54 size: 83222
    ---Information 05.08.2013 0:14:41 x264 info: frame P:35451 Avg QP:18.81 size: 37084
    ---Information 05.08.2013 0:14:41 x264 info: frame B:133984 Avg QP:21.26 size: 14767
    ---Information 05.08.2013 0:14:41 x264 info: consecutive B-frames: 2.2% 2.6% 5.6% 18.7% 13.4% 42.8% 5.7% 6.4% 2.5%
    ---Information 05.08.2013 0:14:41 x264 info: mb I I16..4: 9.3% 77.6% 13.1%
    ---Information 05.08.2013 0:14:41 x264 info: mb P I16..4: 1.4% 16.4% 1.5% P16..4: 36.5% 27.7% 12.1% 0.0% 0.0% skip: 4.3%
    ---Information 05.08.2013 0:14:41 x264 info: mb B I16..4: 0.1% 1.8% 0.1% B16..8: 45.8% 11.5% 2.7% direct: 7.1% skip:30.9% L0:44.3% L1:47.4% BI: 8.3%
    ---Information 05.08.2013 0:14:41 x264 info: 8x8 transform intra:85.2% inter:62.9%
    ---Information 05.08.2013 0:14:41 x264 info: coded y,uvDC,uvAC intra: 92.9% 77.2% 56.6% inter: 30.6% 18.2% 5.0%
    ---Information 05.08.2013 0:14:41 x264 info: i16 v,h,dc,p: 18% 10% 26% 46%
    ---Information 05.08.2013 0:14:41 x264 info: i8 v,h,dc,ddl,ddr,vr,hd,vl,hu: 8% 8% 11% 10% 13% 12% 13% 11% 14%
    ---Information 05.08.2013 0:14:41 x264 info: i4 v,h,dc,ddl,ddr,vr,hd,vl,hu: 8% 8% 3% 10% 16% 14% 15% 11% 14%
    ---Information 05.08.2013 0:14:41 x264 info: i8c dc,h,v,p: 44% 24% 16% 16%
    ---Information 05.08.2013 0:14:41 x264 info: Weighted P-Frames: Y:4.7% UV:2.8%
    ---Information 05.08.2013 0:14:41 x264 info: ref P L0: 45.5% 8.4% 18.1% 7.5% 6.0% 4.4% 3.8% 2.2% 2.0% 1.8% 0.2% 0.0%
    ---Information 05.08.2013 0:14:41 x264 info: ref B L0: 69.7% 12.8% 6.8% 3.5% 2.5% 2.0% 1.6% 0.7% 0.3%
    ---Information 05.08.2013 0:14:41 x264 info: ref B L1: 91.2% 8.8%
    ---Information 05.08.2013 0:14:41 x264 info: kb/s:3857.73
    ---Information 05.08.2013 0:14:41 encoded 171250 frames, 4.00 fps, 3857.73 kb/s
    --Information 05.08.2013 0:14:44 Final statistics
    ---Information 05.08.2013 0:14:44 Constant Quality Mode: Quality 19 computed...
    ---Information 05.08.2013 0:14:44 Video Bitrate Obtained (approximate): 3859 kbit/s
    --Information 05.08.2013 0:14:44 MediaInfo
    ---Information File: E:RipMissija.Sereniti.2005.x264.BDRipMissija.Sereniti.2005.x264.BDRip.720p.mkv
    MediaInfo
    Общее
    Полное имя : E:VideoMissija.Sereniti.2005.x264.BDRip.720pMissija.Sereniti.2005.AVO.rus.В.Горчаков.dts
    Формат : DTS
    Формат/Информация : Digital Theater Systems
    Размер файла : 1,26 Гбайт
    Продолжительность : 1 ч. 59 м.
    Режим общего битрейта : Постоянный
    Общий поток : 1510 Кбит/сек

    Аудио
    Формат : DTS
    Формат/Информация : Digital Theater Systems
    Режим : 16
    Параметр Endianness формата : Big
    Продолжительность : 1 ч. 59 м.
    Вид битрейта : Постоянный
    Битрейт : 1510 Кбит/сек
    Каналы : 6 каналов
    Расположение каналов : Front: L C R, Side: L R, LFE
    Частота : 48,0 КГц
    Битовая глубина : 24 бит
    Метод сжатия : С потерями
    Размер потока : 1,26 Гбайт (100%)

    Общее
    Полное имя : E:VideoMissija.Sereniti.2005.x264.BDRip.720pMissija.Sereniti.2005.AVO.rus.В.Королёв.dts
    Формат : DTS
    Формат/Информация : Digital Theater Systems
    Размер файла : 642 Мбайт
    Продолжительность : 1 ч. 59 м.
    Режим общего битрейта : Постоянный
    Общий поток : 755 Кбит/сек

    Аудио
    Формат : DTS
    Формат/Информация : Digital Theater Systems
    Режим : 16
    Параметр Endianness формата : Big
    Продолжительность : 1 ч. 59 м.
    Вид битрейта : Постоянный
    Битрейт : 755 Кбит/сек
    Каналы : 6 каналов
    Расположение каналов : Front: L C R, Side: L R, LFE
    Частота : 48,0 КГц
    Битовая глубина : 24 бит
    Метод сжатия : С потерями
    Размер потока : 642 Мбайт

    Общее
    Полное имя : E:VideoMissija.Sereniti.2005.x264.BDRip.720pMissija.Sereniti.2005.AVO.rus.Ю.Сербин.dts
    Формат : DTS
    Формат/Информация : Digital Theater Systems
    Размер файла : 1,25 Гбайт
    Продолжительность : 1 ч. 59 м.
    Режим общего битрейта : Постоянный
    Общий поток : 1509 Кбит/сек

    Аудио
    Формат : DTS
    Формат/Информация : Digital Theater Systems
    Режим : 16
    Параметр Endianness формата : Big
    Продолжительность : 1 ч. 59 м.
    Вид битрейта : Постоянный
    Битрейт : 1509 Кбит/сек
    Каналы : 6 каналов
    Расположение каналов : Front: L C R, Side: L R, LFE
    Частота : 48,0 КГц
    Битовая глубина : 24 бит
    Метод сжатия : С потерями
    Размер потока : 1,25 Гбайт (100%)

    Общее
    Полное имя : E:VideoMissija.Sereniti.2005.x264.BDRip.720pMissija.Sereniti.2005.CommDir.eng.ac3
    Формат : AC-3
    Формат/Информация : Audio Coding 3
    Размер файла : 163 Мбайт
    Продолжительность : 1 ч. 59 м.
    Режим общего битрейта : Постоянный
    Общий поток : 192 Кбит/сек

    Аудио
    Формат : AC-3
    Формат/Информация : Audio Coding 3
    Профиль формата : Dolby Digital
    Расширение режима : CM (complete main)
    Параметр Endianness формата : Big
    Продолжительность : 1 ч. 59 м.
    Вид битрейта : Постоянный
    Битрейт : 192 Кбит/сек
    Каналы : 2 канала
    Расположение каналов : Front: L R
    Частота : 48,0 КГц
    Битовая глубина : 16 бит
    Метод сжатия : С потерями
    Размер потока : 163 Мбайт (100%)

    Общее
    Полное имя : E:VideoMissija.Sereniti.2005.x264.BDRip.720pMissija.Sereniti.2005.Commentary2.eng.ac3
    Формат : AC-3
    Формат/Информация : Audio Coding 3
    Размер файла : 163 Мбайт
    Продолжительность : 1 ч. 59 м.
    Режим общего битрейта : Постоянный
    Общий поток : 192 Кбит/сек

    Аудио
    Формат : AC-3
    Формат/Информация : Audio Coding 3
    Профиль формата : Dolby Digital
    Расширение режима : CM (complete main)
    Параметр Endianness формата : Big
    Продолжительность : 1 ч. 59 м.
    Вид битрейта : Постоянный
    Битрейт : 192 Кбит/сек
    Каналы : 2 канала
    Расположение каналов : Front: L R
    Частота : 48,0 КГц
    Битовая глубина : 16 бит
    Метод сжатия : С потерями
    Размер потока : 163 Мбайт (100%)

    Общее
    Полное имя : E:VideoMissija.Sereniti.2005.x264.BDRip.720pMissija.Sereniti.2005.DVO.rus.Tycoon.dts
    Формат : DTS
    Формат/Информация : Digital Theater Systems
    Размер файла : 1,25 Гбайт
    Продолжительность : 1 ч. 59 м.
    Режим общего битрейта : Постоянный
    Общий поток : 1509 Кбит/сек

    Аудио
    Формат : DTS
    Формат/Информация : Digital Theater Systems
    Режим : 16
    Параметр Endianness формата : Big
    Продолжительность : 1 ч. 59 м.
    Вид битрейта : Постоянный
    Битрейт : 1509 Кбит/сек
    Каналы : 6 каналов
    Расположение каналов : Front: L C R, Side: L R, LFE
    Частота : 48,0 КГц
    Битовая глубина : 24 бит
    Метод сжатия : С потерями
    Размер потока : 1,25 Гбайт

    Общее
    Полное имя : E:VideoMissija.Sereniti.2005.x264.BDRip.720pMissija.Sereniti.2005.eng.CommDir.srt
    Размер файла : 358 Кбайт

    Общее
    Полное имя : E:VideoMissija.Sereniti.2005.x264.BDRip.720pMissija.Sereniti.2005.eng.Commentary2.srt
    Размер файла : 434 Кбайт

    Общее
    Полное имя : E:VideoMissija.Sereniti.2005.x264.BDRip.720pMissija.Sereniti.2005.eng.SDH.srt
    Размер файла : 228 Кбайт

    Общее
    Полное имя : E:VideoMissija.Sereniti.2005.x264.BDRip.720pMissija.Sereniti.2005.Original.eng.ac3
    Формат : AC-3
    Формат/Информация : Audio Coding 3
    Размер файла : 381 Мбайт
    Продолжительность : 1 ч. 59 м.
    Режим общего битрейта : Постоянный
    Общий поток : 448 Кбит/сек

    Аудио
    Формат : AC-3
    Формат/Информация : Audio Coding 3
    Расширение режима : CM (complete main)
    Параметр Endianness формата : Big
    Продолжительность : 1 ч. 59 м.
    Вид битрейта : Постоянный
    Битрейт : 448 Кбит/сек
    Каналы : 6 каналов
    Расположение каналов : Front: L C R, Side: L R, LFE
    Частота : 48,0 КГц
    Битовая глубина : 16 бит
    Метод сжатия : С потерями
    Размер потока : 381 Мбайт (100%)

    Общее
    Полное имя : E:VideoMissija.Sereniti.2005.x264.BDRip.720pMissija.Sereniti.2005.rus.CommDir.srt
    Размер файла : 334 Кбайт

    Общее
    Полное имя : E:VideoMissija.Sereniti.2005.x264.BDRip.720pMissija.Sereniti.2005.rus.srt
    Размер файла : 197 Кбайт

    Общее
    Уникальный идентификатор : 177191321361699327479075552793334471894 (0x854DCEA2AACAD3D89FF7D8BD15F95CD6)
    Полное имя : E:VideoMissija.Sereniti.2005.x264.BDRip.720pMissija.Sereniti.2005.x264.BDRip.720p.mkv
    Формат : Matroska
    Версия формата : Version 4 / Version 2
    Размер файла : 5,02 Гбайт
    Продолжительность : 1 ч. 59 м.
    Общий поток : 6036 Кбит/сек
    Название фильма : Миссия Серенити / Serenity / 2005 / BDRip -- STarankov
    Дата кодирования : UTC 2013-08-05 02:04:10
    Программа кодирования : mkvmerge v6.3.0 (;You can;t stop me!;) built on Jun 28 2013 20:09:41
    Библиотека кодирования : libebml v1.3.0 libmatroska v1.4.0

    Видео
    Идентификатор : 1
    Формат : AVC
    Формат/Информация : Advanced Video Codec
    Профиль формата : High@L4.1
    Параметр CABAC формата : Да
    Параметр ReFrames формата : 10 кадров
    Идентификатор кодека : V_MPEG4/ISO/AVC
    Продолжительность : 1 ч. 59 м.
    Битрейт : 3740 Кбит/сек
    Ширина : 1280 пикселей
    Высота : 544 пикселя
    Соотношение сторон : 2,35:1
    Режим частоты кадров : Постоянный
    Частота кадров : 23,976 кадра/сек
    Цветовое пространство : YUV
    Субдискретизация насыщенности : 4:2:0
    Битовая глубина : 8 бит
    Тип развёртки : Прогрессивная
    Бит/(Пиксели*Кадры) : 0.224
    Размер потока : 3,11 Гбайт (62%)
    Библиотека кодирования : x264 core 135 r2345 f0c1c53
    Залил: msltel
    Размер: 10.10 GB (10849801072 Bytes)

    загрузка...
    Рейтинг →
     (голосов: 1, оценка 5/5, голосовать можно 1 раз )

    Другие торренты по теме:

  • Миссия Серенити / Serenity (2005) BDRip 1080p от FREEISLAND торрент скачать бесплатно
  • OST - Миссия Серенити / Serenity (2005) MP3 торрент скачать бесплатно
  • Миссия Серенити / Serenity (2005) BDRip-AVC от ExKinoRay | D, P2, A торрент скачать бесплатно
  • Миссия Серенити / Serenity (2005) DVD9 от New-Team | D | Лицензия торрент скачать бесплатно
  • Миссия Серенити / Serenity (2005) BDRip 720p от HQ-ViDEO | D скачать торрент бесплатно


    • Комментарии (0):

      Информация

      Информация

        Посетители, находящиеся в группе Гости, не могут оставлять комментарии в данной новости.

        ↓ Меню



        ↓ Опрос

        А Вы добавили сайт в закладки?
        Да
        Не


        Top 10 за неделю (Фильмы)

        Ёлки 5 (2016) WEB-DLRip скачать торрент бесплатно

        (просмотров: 571)
        Разрушение / Demolition (2015) BDRemux 1080p от ExKinoRay | L скачать торрент бесплатно

        (просмотров: 381)
        Мой парень – киллер / Mr. Right (2015) WEB-DL 1080p | L скачать торрент бесплатно

        (просмотров: 381)
        Экипаж (2016) BDRip от New-Team | D | Лицензия скачать торрент бесплатно
        АНОНСЫ МОИХ РАЗДАЧ
        (просмотров: 351)
        Экипаж (2016) BDRip от New-Team | D | Лицензия скачать торрент бесплатно
        АНОНСЫ МОИХ РАЗДАЧ
        (просмотров: 311)
        Гений / Genius (2016) WEB-DLRip 1080p | Звук TS скачать торрент бесплатно

        (просмотров: 211)
        Кухня (1-5 сезоны: 1-100 серии из 100 + 2 бонуса) / 2012-2015 / РУ / DVDRip, WEB-DLRip скачать торрент бесплатно

        (просмотров: 201)
        Дуэлянт (2016) WEB-DLRip от Scarabey | iTunes скачать торрент бесплатно

        (просмотров: 191)
        Демон внутри / Вскрытие Джейн Доу / The Autopsy of Jane Doe (2016) WEB-DLRip от Scarabey | P скачать торрент бесплатно
        Мы В КОНТАКТЕ =)
        (просмотров: 181)
        Кухня (2015) SATRip скачать торрент бесплатно
        Кухня ? Кухня (2015) SATRip скачать торрент бесплатно
        (просмотров: 181)