.
Авторизация | Регистрация
» » Перстень с русалкой / Sello a pecsetgyurun I (1967) DVDRip I D торрент скачать бесплатно




    Перстень с русалкой / Sello a pecsetgyurun I (1967) DVDRip I D торрент скачать бесплатно

    Опубликовал: Админ | Дата: 27-02-2015, 11:09 | Просмотров: 500





    Страна: Венгрия
    Производство: Мафильм
    Жанр: Детектив
    Год выпуска: 1967

    Продолжительность: 2 х ~ 01:30:50


    Перевод: Дублированный

    Оригинальная аудиодорожка: Нет

    Cубтитры: Нет


    Режиссер: Имре Михайфи


    В ролях: Андор Айтаи, Фридьеш Барани, Ласло Чурка, Антал Фаркаш, Жигмонд Фюлёп, Хильда Гобби, Золтан Грегушш, Юдит Халас, Андраш Козак, Георгий Калман




    Описание: По пустынным, вымершим улицам из последних сил мечется неизвестный, в попытке спастись он стучится во все двери, но нет ему спасения. Сзади медленно, но неотвратимо приближается черный автомобиль с сидящими в нем гестаповцами, звучит автоматная очередь. И вот улыбающийся эсесовский офицер Генрих фон Шликкен снимает уже с руки мертвого мужчины перстень с выгравированной на нем русалкой и передает некоему человеку, выдавшему всю подпольную организацию.

    Исходник: DVD9 R2

    Тип релиза: DVDRip

    Контейнер: AVI


    Видео: XviD, 704*528 (4:3), 23,976 кадра/сек, 0.196 bit/pixel
    Аудио: AC-3, 6 каналов, 48,0 КГц, 384 Кбит/сек



    MediaInfo
    Общее
    Полное имя : D:1АААПерстень с русалкой1.avi
    Формат : AVI
    Формат/Информация : Audio Video Interleave
    Размер файла : 1,36 Гбайт
    Продолжительность : 1 ч. 30 м.
    Общий поток : 2141 Кбит/сек
    Программа кодирования : VirtualDubMod 1.5.10.3 | www.virtualdub-fr.org || (build 2550/release)
    Библиотека кодирования : VirtualDubMod build 2550/release

    Видео
    Идентификатор : 0
    Формат : MPEG-4 Visual
    Профиль формата : Advanced Simple@L5
    Параметр BVOP формата : 2
    Параметр QPel формата : Нет
    Параметр GMC формата : Без точки перехода
    Параметр матрицы формата : Default (MPEG)
    Режим смешивания : Сжатый битовый поток
    Идентификатор кодека : XVID
    Идентификатор кодека/Подсказка : XviD
    Продолжительность : 1 ч. 30 м.
    Битрейт : 1747 Кбит/сек
    Ширина : 704 пикселя
    Высота : 528 пикселей
    Соотношение сторон : 4:3
    Частота кадров : 23,976 кадра/сек
    Цветовое пространство : YUV
    Субдискретизация насыщенности : 4:2:0
    Битовая глубина : 8 бит
    Тип развёртки : Прогрессивная
    Метод сжатия : С потерями
    Бит/(Пиксели*Кадры) : 0.196
    Размер потока : 1,11 Гбайт (82%)
    Библиотека кодирования : XviD 1.2.1 (UTC 2008-12-04)

    Аудио
    Идентификатор : 1
    Формат : AC-3
    Формат/Информация : Audio Coding 3
    Расширение режима : CM (complete main)
    Параметр Endianness формата : Big
    Идентификатор кодека : 2000
    Продолжительность : 1 ч. 30 м.
    Вид битрейта : Постоянный
    Битрейт : 384 Кбит/сек
    Каналы : 6 каналов
    Расположение каналов : Front: L C R, Side: L R, LFE
    Частота : 48,0 КГц
    Битовая глубина : 16 бит
    Метод сжатия : С потерями
    Размер потока : 250 Мбайт (18%)
    Выравнивание : Разделение по промежуткам
    Продолжительность промежутка : 42 мс. (1,00 видеокадр)
    Время предзагрузки промежутка : 500 мс.







    Скриншоты




    Релиз группа:

    Автор рипа:
    Залил: YArl
    Размер: 2.72 GB (2920382464 Bytes)
    загрузка...
    Рейтинг →
     (голосов: 1, оценка 3/5, голосовать можно 1 раз )

    Другие торренты по теме:

  • Перстень Левеншельдов (3 книги из 3) торрент скачать бесплатно


    • Комментарии (0):

      Информация

      Информация

        Посетители, находящиеся в группе Гости, не могут оставлять комментарии в данной новости.

        ↓ Меню



        ↓ Опрос

        А Вы добавили сайт в закладки?
        Да
        Не


        Top 10 за неделю (Фильмы)