.
Авторизация | Регистрация
Хочешь лучшие торренты? Добавь свой email!
Добавить
» » Прикосновение медузы / The Medusa Touch (1978) DVDRip | A торрент скачать бесплатно




    Прикосновение медузы / The Medusa Touch (1978) DVDRip | A торрент скачать бесплатно

    Опубликовал: Админ | Дата: 27-02-2015, 11:09 | Просмотров: 443




    Страна: Франция, Великобритания
    Производство: Coatesgold, Incorporated Television Company (ITC)
    Жанр: Триллер
    Год выпуска: 1978

    Продолжительность: 01:44:34


    Перевод: Авторский (Михалев)

    Оригинальная аудиодорожка: Нет

    Cубтитры: Нет


    Режиссер: Джек Голд


    В ролях: Ричард Бертон, Лино Вентура, Ли Ремик, Гарри Эндрюс, Мари-Кристин Барро, Майкл Хордерн, Гордон Джексон, Майкл Бирн




    Описание: Убит писатель Морлар. Начинается расследование, которым занимается детектив Брюнель. Но неожиданно жертва жива: у пациента работает только мозг, который решительно не хочет умирать и, словно что-то желая сказать, временами активизируется и посылает сигналы. Брюнель выясняет, что накануне убийства у Морлара был человек по имени Зонфельд. Им оказывается личный психиатр писателя, молодая женщина, которая рассказывает детективу о Морларе. Писатель рассказал миссис Зонфельд, что у него есть телекинетический дар предвидения катастроф и несчастных случаев, который проявился в детстве. Все началось с родителей-деспотов и религиозной ирландской фанатички-няни, которая пичкала его кровавыми видениями. Он ненавидел всех их: в результате они погибли в результате несчастных случаев…


    Исходник: DVD9 R2

    Тип релиза: DVDRip

    Контейнер: AVI


    Видео: 720x400 (1.80:1), 23.976 fps, XviD ~1674 kbps avg, 0.24 bit/pixel
    Аудио: 48 kHz, AC3 2.0 ~192.00 kbps avg



    MediaInfo
    Общее
    Полное имя : D:1АААМедуза.avi
    Формат : AVI
    Формат/Информация : Audio Video Interleave
    Размер файла : 1,37 Гбайт
    Продолжительность : 1 ч. 44 м.
    Общий поток : 1876 Кбит/сек
    Программа кодирования : VirtualDubMod 1.5.10.3 | www.virtualdub-fr.org || (build 2550/release)
    Библиотека кодирования : VirtualDubMod build 2550/release

    Видео
    Идентификатор : 0
    Формат : MPEG-4 Visual
    Профиль формата : Advanced Simple@L5
    Параметр BVOP формата : 2
    Параметр QPel формата : Нет
    Параметр GMC формата : Без точки перехода
    Параметр матрицы формата : Default (MPEG)
    Режим смешивания : Сжатый битовый поток
    Идентификатор кодека : XVID
    Идентификатор кодека/Подсказка : XviD
    Продолжительность : 1 ч. 44 м.
    Битрейт : 1675 Кбит/сек
    Ширина : 720 пикселей
    Высота : 400 пикселей
    Соотношение сторон : 16:9
    Частота кадров : 23,976 кадра/сек
    Цветовое пространство : YUV
    Субдискретизация насыщенности : 4:2:0
    Битовая глубина : 8 бит
    Тип развёртки : Прогрессивная
    Метод сжатия : С потерями
    Бит/(Пиксели*Кадры) : 0.243
    Размер потока : 1,22 Гбайт (89%)
    Библиотека кодирования : XviD 1.2.1 (UTC 2008-12-04)

    Аудио
    Идентификатор : 1
    Формат : AC-3
    Формат/Информация : Audio Coding 3
    Расширение режима : CM (complete main)
    Параметр Endianness формата : Big
    Идентификатор кодека : 2000
    Продолжительность : 1 ч. 44 м.
    Вид битрейта : Постоянный
    Битрейт : 192 Кбит/сек
    Каналы : 2 канала
    Расположение каналов : Front: L R
    Частота : 48,0 КГц
    Битовая глубина : 16 бит
    Метод сжатия : С потерями
    Размер потока : 144 Мбайт (10%)
    Выравнивание : Разделение по промежуткам
    Продолжительность промежутка : 42 мс. (1,00 видеокадр)
    Время предзагрузки промежутка : 500 мс.







    Скриншоты




    Релиз группа:

    Автор рипа:
    Залил: YArl
    Размер: 1.37 GB (1471617024 Bytes)
    загрузка...
    Рейтинг →
     (голосов: 1, оценка 3/5, голосовать можно 1 раз )

    Другие торренты по теме:

  • Связь / Прикосновение / Контакт / Touch (2013) WEB-DLRip от Boerboel-frol | LostFilm
  • Андрей Бандера - Прикосновение (2011) mp3
  • Опасное прикосновение / Dangerous Touch (1994) DVDRip
  • Связь / Прикосновение / Контакт / Touch (2012) WEB-DL 720p от HDClub | Первый канал
  • Связь / Прикосновение / Контакт / Touch (2012) WEB-DL 720p от HDClub | LostFilm скачать через торрент бесплатно
  • Темное прикосновение / Поцелуй мамочку на ночь / Dark Touch (2013) WEB-DL 720p от CINEMANIA | P, L2 скачать через торрент бесплатно
  • Связь / Прикосновение / Контакт / Touch (2012-2013) WEB-DLRip l LostFilm
  • Поцелуй мамочку на ночь / Темное прикосновение / Dark Touch (2013) HDTVRip 1080p от MediaClub | P, L2


    • Комментарии (0):

      Информация

      Информация

        Посетители, находящиеся в группе Гости, не могут оставлять комментарии в данной новости.

        ↓ Меню



        ↓ Опрос

        А Вы добавили сайт в закладки?
        Да
        Не


        Top 10 за месяц (Фильмы)